Правила | Zavvi | Amazon.com Amazon.ca Amazon.co.uk Amazon.de Amazon.fr Amazon.it Amazon.es | OZON.ru

Helpful ReplyHot!Импорт с русской локализацией (обсуждение), том IV

Page: << < ..2122232425.. > >> Showing page 23 of 36
Author
дедушка разведчик
Меценат
  • Total Posts : 683
  • Scores: 452
  • Joined: 2011/10/14 17:14:35
  • Location: москва
  • Status: offline
Re: Импорт с русской локализацией (обсуждение), том IV 2018/12/09 13:47:24 (ссылка)
+2 (2)
Российский сериал Чужая война в Скандинавии:
 
https://www.discshop.se/filmer/bluray/soldier_blu_ray/P127978
http://www.dvdcompare.net/comparisons/film.php?fid=49022#1
 
 
Добрый день. Там точно есть русский?? Спасибо.
voovaz
Эксперт
  • Total Posts : 1124
  • Scores: 1356
  • Joined: 2015/09/15 11:14:25
  • Status: offline
Re: Импорт с русской локализацией (обсуждение), том IV 2018/12/12 11:36:36 (ссылка)
+4 (4)
Ant-Man and the Wasp
DISC INFO:

Disc Title: MARVEL'S ANT-MAN AND THE WASP - BLU-RAY™
Disc Label: ANT_MAN_AND_THE_WASP
Disc Size: 43,180,536,652 bytes
Protection: AACS
Extras: BD-Java
BDInfo: 0.7.5.0

PLAYLIST REPORT:

Name: 00800.MPLS
Length: 1:58:06.537 (h:m:s.ms)
Size: 36,384,878,592 bytes
Total Bitrate: 41.07 Mbps

VIDEO:

Codec Bitrate Description
----- ------- -----------
MPEG-4 AVC Video 32026 kbps 1080p / 23.976 fps / 16:9 / High Profile 4.1

AUDIO:

Codec Language Bitrate Description
----- -------- ------- -----------
DTS-HD Master Audio English 4788 kbps 7.1 / 48 kHz / 4788 kbps / 24-bit (DTS Core: 5.1 / 48 kHz / 1509 kbps / 24-bit)
Dolby Digital Audio English 320 kbps 2.0 / 48 kHz / 320 kbps
Dolby Digital Audio Russian 640 kbps 5.1 / 48 kHz / 640 kbps
Dolby Digital Audio Hindi 640 kbps 5.1 / 48 kHz / 640 kbps
Dolby Digital Audio English 192 kbps 2.0 / 48 kHz / 192 kbps / DN -4dB

SUBTITLES:

Codec Language Bitrate Description
----- -------- ------- -----------
Presentation Graphics English 44.485 kbps
Presentation Graphics Russian 33.863 kbps
Presentation Graphics English 87.278 kbps
Presentation Graphics Russian 93.954 kbps
Presentation Graphics Russian 0.193 kbps
Presentation Graphics Hindi 0.399 kbps

FILES:

Name Time In Length Size Total Bitrate
---- ------- ------ ---- -------------
00801.M2TS 0:00:00.000 1:58:06.537 36,384,878,592 41,075


voovaz
Эксперт
  • Total Posts : 1124
  • Scores: 1356
  • Joined: 2015/09/15 11:14:25
  • Status: offline
Re: Импорт с русской локализацией (обсуждение), том IV 2018/12/12 17:09:25 (ссылка)
+6 (6)
Альфа [2в1: Театральная и режиссерская версии] / Alpha [2in1: Theatrical & Directors Cut]

PLAYLIST REPORT:

Name: 00800.MPLS
Length: 1:36:30.951 (h:m:s.ms)
Size: 21,766,514,688 bytes
Total Bitrate: 30.07 Mbps

(*) Indicates included stream hidden by this playlist.

VIDEO:

Codec Bitrate Description
----- ------- -----------
MPEG-4 AVC Video 22762 kbps 1080p / 23.976 fps / 16:9 / High Profile 4.1

AUDIO:

Codec Language Bitrate Description
----- -------- ------- -----------
DTS-HD Master Audio English 2138 kbps 5.1 / 48 kHz / 2138 kbps / 16-bit (DTS Core: 5.1 / 48 kHz / 1509 kbps / 16-bit)
Dolby Digital Audio English 640 kbps 5.1 / 48 kHz / 640 kbps
Dolby Digital Audio Hungarian 640 kbps 5.1 / 48 kHz / 640 kbps
Dolby Digital Audio Polish 640 kbps 5.1 / 48 kHz / 640 kbps
Dolby Digital Audio Russian 640 kbps 5.1 / 48 kHz / 640 kbps
Dolby Digital Audio Ukrainian 640 kbps 5.1 / 48 kHz / 640 kbps

SUBTITLES:

Codec Language Bitrate Description
----- -------- ------- -----------
Presentation Graphics English 3.842 kbps
Presentation Graphics Arabic 2.295 kbps
Presentation Graphics Bulgarian 4.008 kbps
Presentation Graphics Croatian 3.636 kbps
Presentation Graphics Czech 3.858 kbps
Presentation Graphics Estonian 4.021 kbps
Presentation Graphics Greek 4.759 kbps
Presentation Graphics Hungarian 4.165 kbps
Presentation Graphics Polish 4.004 kbps
Presentation Graphics Portuguese 4.330 kbps
Presentation Graphics Romanian 4.030 kbps
Presentation Graphics Russian 3.950 kbps
Presentation Graphics Slovak 3.574 kbps
Presentation Graphics Slovenian 3.971 kbps
Presentation Graphics Turkish 3.952 kbps
Presentation Graphics Ukrainian 4.339 kbps
* Presentation Graphics English 3.841 kbps
* Presentation Graphics Arabic 2.259 kbps
* Presentation Graphics Bulgarian 3.958 kbps
* Presentation Graphics Croatian 3.729 kbps
* Presentation Graphics Czech 3.795 kbps
* Presentation Graphics Estonian 3.978 kbps
* Presentation Graphics Greek 4.701 kbps
* Presentation Graphics Hungarian 4.141 kbps
* Presentation Graphics Polish 4.020 kbps
* Presentation Graphics Portuguese 4.253 kbps
* Presentation Graphics Romanian 4.037 kbps
* Presentation Graphics Russian 3.940 kbps
* Presentation Graphics Slovak 3.682 kbps
* Presentation Graphics Slovenian 3.865 kbps
* Presentation Graphics Turkish 4.096 kbps
* Presentation Graphics Ukrainian 4.283 kbps



PLAYLIST REPORT:

Name: 00801.MPLS
Length: 1:35:19.630 (h:m:s.ms)
Size: 21,321,861,120 bytes
Total Bitrate: 29.82 Mbps

(*) Indicates included stream hidden by this playlist.

VIDEO:

Codec Bitrate Description
----- ------- -----------
MPEG-4 AVC Video 22562 kbps 1080p / 23.976 fps / 16:9 / High Profile 4.1

AUDIO:

Codec Language Bitrate Description
----- -------- ------- -----------
DTS-HD Master Audio English 2140 kbps 5.1 / 48 kHz / 2140 kbps / 16-bit (DTS Core: 5.1 / 48 kHz / 1509 kbps / 16-bit)
* Dolby Digital Audio English 640 kbps 5.1 / 48 kHz / 640 kbps
* Dolby Digital Audio Hungarian 640 kbps 5.1 / 48 kHz / 640 kbps
* Dolby Digital Audio Polish 640 kbps 5.1 / 48 kHz / 640 kbps
* Dolby Digital Audio Russian 640 kbps 5.1 / 48 kHz / 640 kbps
* Dolby Digital Audio Ukrainian 640 kbps 5.1 / 48 kHz / 640 kbps

SUBTITLES:

Codec Language Bitrate Description
----- -------- ------- -----------
* Presentation Graphics English 1.833 kbps
* Presentation Graphics Arabic 1.082 kbps
* Presentation Graphics Bulgarian 1.862 kbps
* Presentation Graphics Croatian 1.729 kbps
* Presentation Graphics Czech 1.061 kbps
* Presentation Graphics Estonian 1.856 kbps
* Presentation Graphics Greek 2.120 kbps
* Presentation Graphics Hungarian 1.204 kbps
* Presentation Graphics Polish 1.117 kbps
* Presentation Graphics Portuguese 1.978 kbps
* Presentation Graphics Romanian 1.802 kbps
* Presentation Graphics Russian 1.826 kbps
* Presentation Graphics Slovak 1.669 kbps
* Presentation Graphics Slovenian 1.835 kbps
* Presentation Graphics Turkish 1.836 kbps
* Presentation Graphics Ukrainian 1.907 kbps
Presentation Graphics English 3.887 kbps
Presentation Graphics Arabic 2.282 kbps
Presentation Graphics Bulgarian 4.009 kbps
Presentation Graphics Croatian 3.769 kbps
Presentation Graphics Czech 3.837 kbps
Presentation Graphics Estonian 4.032 kbps
Presentation Graphics Greek 4.758 kbps
Presentation Graphics Hungarian 4.184 kbps
Presentation Graphics Polish 4.058 kbps
Presentation Graphics Portuguese 4.306 kbps
Presentation Graphics Romanian 4.083 kbps
Presentation Graphics Russian 3.982 kbps
Presentation Graphics Slovak 3.730 kbps
Presentation Graphics Slovenian 3.900 kbps
Presentation Graphics Turkish 4.130 kbps
Presentation Graphics Ukrainian 4.323 kbps

bertuccio
Эксперт
  • Total Posts : 1712
  • Scores: 2756
  • Joined: 2012/04/13 22:05:26
  • Location: Paris
  • Status: offline
Re: Импорт с русской локализацией (обсуждение), том IV 2018/12/13 09:43:08 (ссылка)
+6 (6)
Venom 3D - скандинавская обложка:
 
https://www.blu-ray.com/movies/Venom-3D-Blu-ray/213312/
 
+ обложка 2D со всеми подробностями:
 
https://www.blu-ray.com/movies/Venom-Blu-ray/214225/
prjanick
Меценат
  • Total Posts : 7633
  • Scores: 15319
  • Joined: 2009/12/07 21:14:03
  • Location: СПб
  • Status: offline
Re: Импорт с русской локализацией (обсуждение), том IV 2018/12/13 16:14:14 (ссылка)
+2 (2)
Болгарский фильм "Возвышение" (Възвишение / Heights)
в Болгарии с русскими субтитрами.
Издание трехдисковое - фильм, бонусы и саундтрек: https://www.ozone.bg/product/vazvishenie-blu-ray/
 
bertuccio
Эксперт
  • Total Posts : 1712
  • Scores: 2756
  • Joined: 2012/04/13 22:05:26
  • Location: Paris
  • Status: offline
Re: Импорт с русской локализацией (обсуждение), том IV 2018/12/13 19:47:25 (ссылка)
+3 (3)
Zombie
 
PLAYLIST REPORT:

Name: 00000.MPLS
Length: 1:31:30.651 (h:m:s.ms)
Size: 27.032.523.840 bytes
Total Bitrate: 39,39 Mbps

VIDEO:

Codec Bitrate Description
----- ------- -----------
MPEG-4 AVC Video 30804 kbps 1080p / 23,976 fps / 16:9 / High Profile 4.1

AUDIO:

Codec Language Bitrate Description
----- -------- ------- -----------
DTS-HD Master Audio English 2093 kbps 7.1 / 48 kHz / 2093 kbps / 16-bit (DTS Core: 5.1 / 48 kHz / 768 kbps / 16-bit)
DTS-HD Master Audio English 392 kbps 1.0 / 48 kHz / 392 kbps / 16-bit (DTS Core: 1.0 / 48 kHz / 192 kbps / 16-bit)
DTS-HD Master Audio Italian 2114 kbps 7.1 / 48 kHz / 2114 kbps / 16-bit (DTS Core: 5.1 / 48 kHz / 768 kbps / 16-bit)
DTS-HD Master Audio Italian 414 kbps 1.0 / 48 kHz / 414 kbps / 16-bit (DTS Core: 1.0 / 48 kHz / 192 kbps / 16-bit)
Dolby Digital Audio English 224 kbps 1.0 / 48 kHz / 224 kbps
Dolby Digital Audio English 224 kbps 1.0 / 48 kHz / 224 kbps
Dolby Digital Audio French 224 kbps 1.0 / 48 kHz / 224 kbps

SUBTITLES:

Codec Language Bitrate Description
----- -------- ------- -----------
Presentation Graphics English 41,934 kbps
Presentation Graphics French 27,505 kbps
Presentation Graphics Spanish 28,692 kbps
Presentation Graphics Portuguese 26,442 kbps
Presentation Graphics German 32,234 kbps
Presentation Graphics Italian 28,249 kbps
Presentation Graphics Danish 28,717 kbps
Presentation Graphics Finnish 28,393 kbps
Presentation Graphics Dutch 28,820 kbps
Presentation Graphics Swedish 28,196 kbps
Presentation Graphics Russian 29,815 kbps
Presentation Graphics Korean 19,781 kbps
Presentation Graphics Japanese 21,535 kbps
Presentation Graphics Chinese 32,169 kbps
Presentation Graphics Chinese 30,959 kbps
Presentation Graphics Chinese 31,102 kbps
Presentation Graphics Thai 27,927 kbps
Presentation Graphics English 27,782 kbps



bertuccio
Эксперт
  • Total Posts : 1712
  • Scores: 2756
  • Joined: 2012/04/13 22:05:26
  • Location: Paris
  • Status: offline
Re: Импорт с русской локализацией (обсуждение), том IV 2018/12/14 11:05:54 (ссылка)
+2 (2)
Maniac
 
PLAYLIST REPORT:

Name: 00000.MPLS
Length: 1:27:58.314 (h:m:s.ms)
Size: 24.519.800.640 bytes
Total Bitrate: 37.16 Mbps

VIDEO:

Codec Bitrate Description
----- ------- -----------
MPEG-4 AVC Video 30339 kbps 1080p / 23.976 fps / 16:9 / High Profile 4.1

AUDIO:

Codec Language Bitrate Description
----- -------- ------- -----------
DTS-HD Master Audio English 1828 kbps 7.1 / 48 kHz / 1828 kbps / 16-bit (DTS Core: 5.1 / 48 kHz / 896 kbps / 16-bit)
DTS-HD Master Audio English 674 kbps 2.0 / 48 kHz / 674 kbps / 16-bit (DTS Core: 2.0 / 48 kHz / 384 kbps / 16-bit)
Dolby Digital Audio Spanish 320 kbps 2.0 / 48 kHz / 320 kbps
Dolby Digital Audio French 320 kbps 2.0 / 48 kHz / 320 kbps
Dolby Digital Audio Italian 320 kbps 2.0 / 48 kHz / 320 kbps
Dolby Digital Audio German 320 kbps 2.0 / 48 kHz / 320 kbps
Dolby Digital Audio English 224 kbps 2.0 / 48 kHz / 224 kbps
Dolby Digital Audio English 224 kbps 2.0 / 48 kHz / 224 kbps

SUBTITLES:

Codec Language Bitrate Description
----- -------- ------- -----------
Presentation Graphics English 35.888 kbps
Presentation Graphics French 23.055 kbps
Presentation Graphics Spanish 23.666 kbps
Presentation Graphics Portuguese 21.460 kbps
Presentation Graphics German 24.643 kbps
Presentation Graphics Italian 23.384 kbps
Presentation Graphics Danish 25.453 kbps
Presentation Graphics Finnish 22.667 kbps
Presentation Graphics Dutch 24.382 kbps
Presentation Graphics Swedish 22.854 kbps
Presentation Graphics Russian 23.172 kbps
Presentation Graphics Korean 14.886 kbps
Presentation Graphics Japanese 18.379 kbps
Presentation Graphics Chinese 25.607 kbps
Presentation Graphics Chinese 25.729 kbps
Presentation Graphics Chinese 25.528 kbps
Presentation Graphics Thai 21.049 kbps

bertuccio
Эксперт
  • Total Posts : 1712
  • Scores: 2756
  • Joined: 2012/04/13 22:05:26
  • Location: Paris
  • Status: offline
Re: Импорт с русской локализацией (обсуждение), том IV 2018/12/14 14:42:34 (ссылка)
+3 (3)
prjanick
Болгарский фильм "Возвышение" (Възвишение / Heights)
в Болгарии с русскими субтитрами.
Издание трехдисковое - фильм, бонусы и саундтрек: https://www.ozone.bg/product/vazvishenie-blu-ray/
 




В продолжение темы еще несколько восточноевропейских фильмов с русскими субтитрами.
 
Венгерский мультфильм Трагедия человека/Az ember tragédiája:
https://www.xpress.hu/xp/prod.asp?PID=15288&VID=066-18877810-7898179417019162
 
Сербская документалка 1936 года про Первую мировую Сербская голгофа\Golgota Srbije WWI:
http://www.dvdcompare.net/comparisons/film.php?fid=49134 
 
Эстонская документалка Земля ветров/Tuulte tahutud maa:
https://www.apollo.ee/tuulte-tahutud-maa-br.html
Shaun
Moderator
  • Total Posts : 7248
  • Scores: 15094
  • Joined: 2009/07/18 20:52:02
  • Location: город-герой Москва
  • Status: offline
Re: Импорт с русской локализацией (обсуждение), том IV 2018/12/15 00:45:48 (ссылка)
+4 (4)
The Equalizer 2
 

 
Playlist: 00423.MPLS
Size: 30,458,904,576 bytes
Length: 2:00:57.249
Total Bitrate: 33.58 Mbps
Video: MPEG-4 AVC Video / 22746 kbps / 1080p / 23.976 fps / 16:9 / High Profile 4.1
Audio: English / DTS-HD Master Audio / 7.1 / 48 kHz / 2733 kbps / 16-bit (DTS Core: 5.1 / 48 kHz / 1509 kbps / 16-bit)
Audio: French / DTS-HD Master Audio / 5.1 / 48 kHz / 2228 kbps / 16-bit (DTS Core: 5.1 / 48 kHz / 1509 kbps / 16-bit)
Audio: French / Dolby Digital Audio / 5.1 / 48 kHz / 448 kbps
Audio: German / DTS-HD Master Audio / 5.1 / 48 kHz / 2234 kbps / 16-bit (DTS Core: 5.1 / 48 kHz / 1509 kbps / 16-bit)
Audio: Russian / Dolby Digital Audio / 5.1 / 48 kHz / 640 kbps
Subtitle: English / 22.170 kbps
Subtitle: Arabic / 11.098 kbps
Subtitle: Danish / 20.454 kbps
Subtitle: Dutch / 18.452 kbps
Subtitle: Estonian / 18.279 kbps
Subtitle: Finnish / 19.166 kbps
Subtitle: French / 18.592 kbps
Subtitle: German / 23.084 kbps
Subtitle: Latvian / 19.310 kbps
Subtitle: Lithuanian / 19.725 kbps
Subtitle: Norwegian / 18.637 kbps
Subtitle: Russian / 21.257 kbps
Subtitle: Swedish / 17.520 kbps
Subtitle: Turkish / 20.722 kbps
Subtitle: Ukrainian / 20.558 kbps


                     Продажа BluRay и DVD
bertuccio
Эксперт
  • Total Posts : 1712
  • Scores: 2756
  • Joined: 2012/04/13 22:05:26
  • Location: Paris
  • Status: offline
Re: Импорт с русской локализацией (обсуждение), том IV 2018/12/15 15:14:08 (ссылка)
bertuccio
Эксперт
  • Total Posts : 1712
  • Scores: 2756
  • Joined: 2012/04/13 22:05:26
  • Location: Paris
  • Status: offline
Re: Импорт с русской локализацией (обсуждение), том IV 2018/12/17 14:13:34 (ссылка)
bertuccio
Эксперт
  • Total Posts : 1712
  • Scores: 2756
  • Joined: 2012/04/13 22:05:26
  • Location: Paris
  • Status: offline
Re: Импорт с русской локализацией (обсуждение), том IV 2018/12/17 14:15:51 (ссылка)
voovaz
Эксперт
  • Total Posts : 1124
  • Scores: 1356
  • Joined: 2015/09/15 11:14:25
  • Status: offline
Re: Импорт с русской локализацией (обсуждение), том IV 2018/12/22 03:04:34 (ссылка)
+5 (5)
The Predator
DISC INFO:

Disc Title: THE_PREDATOR
Disc Size: 44,542,820,093 bytes
Protection: AACS
BD-Java: Yes
BDInfo: 0.7.3.3

PLAYLIST REPORT:

Name: 00800.MPLS
Length: 1:46:56.827 (h:m:s.ms)
Size: 32,214,405,120 bytes
Total Bitrate: 40.16 Mbps

(*) Indicates included stream hidden by this playlist.

VIDEO:

Codec Bitrate Description
----- ------- -----------
MPEG-4 AVC Video 26905 kbps 1080p / 23.976 fps / 16:9 / High Profile 4.1

AUDIO:

Codec Language Bitrate Description
----- -------- ------- -----------
DTS-HD Master Audio English 5095 kbps 7.1 / 48 kHz / 5095 kbps / 24-bit (DTS Core: 5.1-ES / 48 kHz / 1509 kbps / 24-bit)
* DTS Audio Japanese 768 kbps 5.1 / 48 kHz / 768 kbps / 24-bit
DTS Audio French 768 kbps 5.1 / 48 kHz / 768 kbps / 24-bit
DTS Audio Spanish 768 kbps 5.1 / 48 kHz / 768 kbps / 24-bit
DTS Audio German 768 kbps 5.1 / 48 kHz / 768 kbps / 24-bit
DTS Audio Italian 768 kbps 5.1 / 48 kHz / 768 kbps / 24-bit
DTS Audio Russian 768 kbps 5.1 / 48 kHz / 768 kbps / 24-bit
Dolby Digital Audio Ukrainian 448 kbps 5.1 / 48 kHz / 448 kbps

SUBTITLES:

Codec Language Bitrate Description
----- -------- ------- -----------
Presentation Graphics English 0.042 kbps
* Presentation Graphics Japanese 15.298 kbps
Presentation Graphics English 49.196 kbps
* Presentation Graphics Japanese 0.357 kbps
Presentation Graphics French 37.702 kbps
Presentation Graphics Spanish 43.405 kbps
Presentation Graphics Danish 38.190 kbps
Presentation Graphics Dutch 39.225 kbps
Presentation Graphics Finnish 39.833 kbps
Presentation Graphics German 44.383 kbps
Presentation Graphics Italian 43.001 kbps
Presentation Graphics Norwegian 42.405 kbps
Presentation Graphics Russian 45.491 kbps
Presentation Graphics Swedish 43.562 kbps
Presentation Graphics Estonian 46.091 kbps
Presentation Graphics Latvian 43.946 kbps
Presentation Graphics Lithuanian 43.612 kbps
Presentation Graphics Ukrainian 44.435 kbps
Presentation Graphics Vietnamese 51.771 kbps

bertuccio
Эксперт
  • Total Posts : 1712
  • Scores: 2756
  • Joined: 2012/04/13 22:05:26
  • Location: Paris
  • Status: offline
Re: Импорт с русской локализацией (обсуждение), том IV 2018/12/24 15:03:25 (ссылка)
prjanick
Меценат
  • Total Posts : 7633
  • Scores: 15319
  • Joined: 2009/12/07 21:14:03
  • Location: СПб
  • Status: offline
Re: Импорт с русской локализацией (обсуждение), том IV 2018/12/25 18:59:20 (ссылка)
+2 (2)
"Собибор" в Японии: https://www.amazon.co.jp/Sobibor-Blu-ray/dp/B07LB7GJC4
"Большой" в Японии: https://www.amazon.co.jp/The-Bolshoi-Blu-ray/dp/B07K8XQS22
 
"Тайна дома с часами" во Франции (а также Германии): https://amzn.to/2GFvA4O
 
"Поиск" также в UK: https://www.blu-ray.com/movies/Searching-Blu-ray/215353/ (но нужна проверка, т.к. данные могли списать с DVD)
voovaz
Эксперт
  • Total Posts : 1124
  • Scores: 1356
  • Joined: 2015/09/15 11:14:25
  • Status: offline
Re: Импорт с русской локализацией (обсуждение), том IV 2018/12/30 01:35:16 (ссылка)
+3 (3)
Incredibles 2 3D
DISC INFO:
 
Disc Title: Incredibles 2 - Blu-ray 3D™
Disc Label: INCREDIBLES_2_3D
Disc Size: 44,836,427,311 bytes
Protection: AACS
Extras: BD-Java, Blu-ray 3D
BDInfo: 0.7.5.0
 
PLAYLIST REPORT:
 
Name: 00800.MPLS
Length: 1:57:50.145 (h:m:s.ms)
Size: 33,609,897,984 bytes
Total Bitrate: 38.03 Mbps
 
VIDEO:
 
Codec Bitrate Description
----- ------- -----------
MPEG-4 AVC Video 19754 kbps Left Eye / 1080p / 23.976 fps / 16:9 / High Profile 4.1
MPEG-4 MVC Video 6761 kbps Right Eye
 
AUDIO:
 
Codec Language Bitrate Description
----- -------- ------- -----------
DTS-HD Master Audio English 4491 kbps 7.1 / 48 kHz / 4491 kbps / 24-bit (DTS Core: 5.1 / 48 kHz / 1509 kbps / 24-bit)
DTS-HD High-Res Audio English 2046 kbps 5.1 / 48 kHz / 2046 kbps / 24-bit (DTS Core: 5.1 / 48 kHz / 1509 kbps / 24-bit)
Dolby Digital Audio English 320 kbps 2.0 / 48 kHz / 320 kbps
Dolby Digital Audio English 320 kbps 2.0 / 48 kHz / 320 kbps
Dolby Digital Audio Russian 640 kbps 5.1 / 48 kHz / 640 kbps / DN -4dB
Dolby Digital Audio Kazakh 640 kbps 5.1 / 48 kHz / 640 kbps / DN -4dB
 
SUBTITLES:
 
Codec Language Bitrate Description
----- -------- ------- -----------
Presentation Graphics English 51.332 kbps
Presentation Graphics Russian 44.012 kbps
Presentation Graphics Russian 0.316 kbps

 
Hotel Transylvania 3
 
DISC INFO:
 
Disc Title: Hotel Transylvania 3 – Blu-ray™
Disc Label: HOTEL_TRANSYLVANIA_3
Disc Size: 37,291,886,591 bytes
Protection: AACS
Extras: BD-Java
BDInfo: 0.7.5.0
 
PLAYLIST REPORT:
 
Name: 00359.MPLS
Length: 1:37:23.295 (h:m:s.ms)
Size: 23,975,301,120 bytes
Total Bitrate: 32.82 Mbps
 
VIDEO:
 
Codec Bitrate Description
----- ------- -----------
MPEG-4 AVC Video 24905 kbps 1080p / 23.976 fps / 16:9 / High Profile 4.1
 
AUDIO:
 
Codec Language Bitrate Description
----- -------- ------- -----------
DTS-HD Master Audio English 2278 kbps 5.1 / 48 kHz / 2278 kbps / 16-bit (DTS Core: 5.1 / 48 kHz / 1509 kbps / 16-bit)
Dolby Digital Audio Estonian 640 kbps 5.1 / 48 kHz / 640 kbps
Dolby Digital Audio Latvian 640 kbps 5.1 / 48 kHz / 640 kbps
Dolby Digital Audio Lithuanian 640 kbps 5.1 / 48 kHz / 640 kbps
Dolby Digital Audio Russian 640 kbps 5.1 / 48 kHz / 640 kbps
Dolby Digital Audio Ukrainian 640 kbps 5.1 / 48 kHz / 640 kbps
Dolby Digital Audio English 192 kbps 2.0 / 48 kHz / 192 kbps
 
SUBTITLES:
 
Codec Language Bitrate Description
----- -------- ------- -----------
Presentation Graphics English 32.495 kbps
Presentation Graphics Estonian 32.546 kbps
Presentation Graphics Latvian 31.722 kbps
Presentation Graphics Lithuanian 30.891 kbps
Presentation Graphics Russian 35.225 kbps
Presentation Graphics Ukrainian 32.640 kbps
Presentation Graphics English 65.095 kbps
 
FILES:
 
Name Time In Length Size Total Bitrate
---- ------- ------ ---- -------------
00001.M2TS 0:00:00.000 1:27:24.405 21,533,534,208 32,848
00354.M2TS 1:27:24.405 0:09:58.889 2,441,766,912 32,617

bertuccio
Эксперт
  • Total Posts : 1712
  • Scores: 2756
  • Joined: 2012/04/13 22:05:26
  • Location: Paris
  • Status: offline
Re: Импорт с русской локализацией (обсуждение), том IV 2018/12/30 17:33:33 (ссылка)
+1 (1)
prjanick
"Большой" в Японии: https://www.amazon.co.jp/The-Bolshoi-Blu-ray/dp/B07K8XQS22
 



Большой еще выходит в Италии:
https://www.amazon.it/Ballerina-del-Bolshoi-Blu-Ray/dp/B07KWLGKQ7/
 
Там же Русский ковчег:
https://www.amazon.it/Arca-Russa-Sergei-Dontsov/dp/B07KZ4H7WH/
prjanick
Меценат
  • Total Posts : 7633
  • Scores: 15319
  • Joined: 2009/12/07 21:14:03
  • Location: СПб
  • Status: offline
Re: Импорт с русской локализацией (обсуждение), том IV 2018/12/30 17:38:53 (ссылка)
+5 (5)
Smallfoot (3D+2D)Zone ABCSound: Eng Atmos 7.1, Rus DD 5.1; Subs: Eng, Rus
Poland | Czech | Slovakia | Greece (2D) | Thailand (2D)
 
Чужая войнаZone B?Sound: Eng DD 5.1, Rus DTS HDMA 5.1
Scandinavia
 
House with a Clock in its Walls, TheZone ABCSound: Eng DTS HDMA 5.1, Rus DTS 5.1; Subs: Eng, Rus
Germany | France
 
Alpha (2in1: Theatrical & Directors Cut)Zone ABCSound: Eng DTS HDMA 5.1, Ukr DD 5.1, Rus DD 5.1; Subs: Eng, Ukr, Rus
Poland | Czech | Slovakia | Hungary | Greece
 
Venom (3D+2D)Zone ABCSound: Eng DTS HDMA 5.1, Ukr DD 5.1, Rus DD 5.1; Subs: Eng, Ukr, Rus
Italy | Italy (2D) | Italy (2D, Steelbook) | Poland | Scandinavia | UK (2D) | Czech (2D) | Hungary (2D) | Greece (2D)
 
Heights (Възвишение)Zone B?Sound: Blg TrueHD 5.1; Subs: Eng, Rus (Only)
[локализация на русский представлена субтитрами]

Bulgaria
 
Az ember tragediajaZone B?Sound: Hu LPCM; Subs: Eng, Rus (Only)
[локализация на русский представлена субтитрами]

Hungary
 
Tuulte tahutud maaZone B?Sound: Est; Subs: Eng, Rus (Only)
[локализация на русский представлена субтитрами]

Estonia
 
НесокрушимыйZone B?Sound: Rus DTS HDMA 5.1
Germany
 
BlacKkKlansmanZone ABCSound: Eng DTS HDMA 5.1, Rus DTS 5.1; Subs: Eng, Rus
Poland | Czech | Slovakia | Hungary
 
Johnny English Strikes AgainZone ABCSound: Eng DTS X, Rus DTS 5.1; Subs: Eng, Rus
Poland | Czech | Slovakia | Greece | Korea | Thailand
 
Predator, The (2018)Zone ABCSound: Eng DTS HDMA 7.1, Ukr DD 5.1, Rus DTS 5.1; Subs: Eng, Ukr, Rus
Germany | France (Steelbook) | Spain (Steelbook) | Italy (Steelbook) | France | Spain | Italy | Japan | Scandinavia
 
Goosebumps 2: Haunted HalloweenZone ABCSound: Eng DTS HDMA 5.1, Rus DD 5.1; Subs: Eng, Rus
Germany | France | Japan | Scandinavia
dima230780
Ценитель
  • Total Posts : 669
  • Scores: 141
  • Joined: 2014/09/19 12:24:21
  • Status: offline
Re: Импорт с русской локализацией (обсуждение), том IV 2018/12/30 18:53:38 (ссылка)
0
Хочется спросить, раньше в Тайна дома с часами были указаны Испания и Япония...в этих странах не будет русского?
prjanick
Меценат
  • Total Posts : 7633
  • Scores: 15319
  • Joined: 2009/12/07 21:14:03
  • Location: СПб
  • Status: offline
Re: Импорт с русской локализацией (обсуждение), том IV 2018/12/30 19:19:37 (ссылка)
0
dima230780
Хочется спросить, раньше в Тайна дома с часами были указаны Испания и Япония...в этих странах не будет русского?


Я такого точно не писал. Подождите выхода диска, узнаете точно.
Page: << < ..2122232425.. > >> Showing page 23 of 36
Jump to:
© 2019 APG vNext Commercial Version 5.5