Правила | Zavvi | Amazon.com Amazon.ca Amazon.co.uk Amazon.de Amazon.fr Amazon.it Amazon.es | OZON.ru

Helpful ReplyHot!Импорт с русской локализацией (обсуждение), том IV

Page: << < ..2122232425.. > >> Showing page 25 of 29
Author
prjanick
Меценат
  • Total Posts : 7507
  • Scores: 15055
  • Joined: 2009/12/07 21:14:03
  • Location: СПб
  • Status: online
Re: Импорт с русской локализацией (обсуждение), том IV 2019/01/12 13:36:51 (ссылка)
+6 (6)
"Хрусталёв, машину!" Германа выпускает Arrow в США и Великобритании в конце апреля.
 

 
Подробности: https://www.arrowvideo.com/product/khrustalyov-my-car-blu-ray/948
bertuccio
Эксперт
  • Total Posts : 1618
  • Scores: 2446
  • Joined: 2012/04/13 22:05:26
  • Location: Paris
  • Status: offline
Re: Импорт с русской локализацией (обсуждение), том IV 2019/01/12 17:05:07 (ссылка)
+2 (2)
Skytech
Bohemian Rhapsody
 
https://www.apollo.ee/bohemian-rhapsody-br.html 


 
Более подробная информация плюс стилбук из Испании:
 
https://www.amazon.es/dp/B07MQGJ36N/ 
 
 
voovaz
Эксперт
  • Total Posts : 1046
  • Scores: 1251
  • Joined: 2015/09/15 11:14:25
  • Status: offline
Re: Импорт с русской локализацией (обсуждение), том IV 2019/01/12 23:40:58 (ссылка)
+4 (4)
Поиск / Searching [2in1]
DISC INFO:

Disc Title: Searching (2018) – Blu-ray™
Disc Label:
Disc Size: 47,081,154,180 bytes
Protection: AACS
Extras: BD-Java
BDInfo: 0.7.5.5

PLAYLIST REPORT:

Name: 00800.MPLS
Length: 1:42:22.553 (h:m:s.ms)
Size: 22,128,470,016 bytes
Total Bitrate: 28.82 Mbps

VIDEO:

Codec Bitrate Description
----- ------- -----------
MPEG-4 AVC Video 21695 kbps 1080p / 23.976 fps / 16:9 / High Profile 4.1

AUDIO:

Codec Language Bitrate Description
----- -------- ------- -----------
DTS-HD Master Audio English 2105 kbps 5.1 / 48 kHz / 2105 kbps / 16-bit (DTS Core: 5.1 / 48 kHz / 1509 kbps / 16-bit)
Dolby Digital Audio English 192 kbps 2.0 / 48 kHz / 192 kbps / DN -31dB / Dolby Surround
Dolby Digital Audio Czech 640 kbps 5.1 / 48 kHz / 640 kbps / DN -31dB
Dolby Digital Audio Hungarian 640 kbps 5.1 / 48 kHz / 640 kbps / DN -31dB
Dolby Digital Audio English 640 kbps 5.1 / 48 kHz / 640 kbps / DN -31dB

SUBTITLES:

Codec Language Bitrate Description
----- -------- ------- -----------
Presentation Graphics English 32.694 kbps
Presentation Graphics English 37.063 kbps
Presentation Graphics Arabic 19.362 kbps
Presentation Graphics Bulgarian 42.860 kbps
Presentation Graphics Croatian 43.283 kbps
Presentation Graphics Czech 43.914 kbps
Presentation Graphics Danish 42.440 kbps
Presentation Graphics Estonian 37.247 kbps
Presentation Graphics Finnish 35.305 kbps
Presentation Graphics Greek 44.972 kbps
Presentation Graphics Hebrew 28.530 kbps
Presentation Graphics Hungarian 40.869 kbps
Presentation Graphics Icelandic 37.935 kbps
Presentation Graphics Latvian 35.467 kbps
Presentation Graphics Lithuanian 38.347 kbps
Presentation Graphics Norwegian 39.536 kbps
Presentation Graphics Polish 40.079 kbps
Presentation Graphics Portuguese 41.364 kbps
Presentation Graphics Romanian 40.260 kbps
Presentation Graphics Russian 46.921 kbps
Presentation Graphics Serbian 41.747 kbps
Presentation Graphics Slovak 36.688 kbps
Presentation Graphics Slovenian 42.121 kbps
Presentation Graphics Swedish 45.320 kbps
Presentation Graphics Turkish 43.530 kbps
Presentation Graphics Ukrainian 46.486 kbps
Presentation Graphics English 87.383 kbps

 
DISC INFO:

Disc Title: Searching (2018) – Blu-ray™
Disc Label:
Disc Size: 47,081,154,180 bytes
Protection: AACS
Extras: BD-Java
BDInfo: 0.7.5.5

PLAYLIST REPORT:

Name: 00801.MPLS
Length: 1:42:22.136 (h:m:s.ms)
Size: 20,173,725,696 bytes
Total Bitrate: 26.28 Mbps

VIDEO:

Codec Bitrate Description
----- ------- -----------
MPEG-4 AVC Video 21656 kbps 1080p / 23.976 fps / 16:9 / High Profile 4.1

AUDIO:

Codec Language Bitrate Description
----- -------- ------- -----------
DTS-HD Master Audio English 2105 kbps 5.1 / 48 kHz / 2105 kbps / 16-bit (DTS Core: 5.1 / 48 kHz / 1509 kbps / 16-bit)
Dolby Digital Audio Russian 640 kbps 5.1 / 48 kHz / 640 kbps / DN -31dB
Dolby Digital Audio English 192 kbps 2.0 / 48 kHz / 192 kbps / DN -31dB / Dolby Surround

SUBTITLES:

Codec Language Bitrate Description
----- -------- ------- -----------
Presentation Graphics English 46.044 kbps
Presentation Graphics Russian 32.113 kbps
Presentation Graphics English 87.389 kbps

 
 
 Диск с отдельным русским видеорядом!
 

post edited by voovaz - 2019/01/13 01:47:48
bertuccio
Эксперт
  • Total Posts : 1618
  • Scores: 2446
  • Joined: 2012/04/13 22:05:26
  • Location: Paris
  • Status: offline
Re: Импорт с русской локализацией (обсуждение), том IV 2019/01/13 23:43:07 (ссылка)
+5 (5)
Любовь в городе ангелов и Снежная королева. Зазеркалье в Германии:
 
https://bluray-disc.de/blu-ray-filme/129980-city_of_angels_verliebt_in_la
 
https://bluray-disc.de/blu-ray-filme/130106-die_schneekoenigin_4_im_spiegelland_2018
 
voovaz
Эксперт
  • Total Posts : 1046
  • Scores: 1251
  • Joined: 2015/09/15 11:14:25
  • Status: offline
Re: Импорт с русской локализацией (обсуждение), том IV 2019/01/15 08:19:19 (ссылка)
+2 (2)
Smallfoot 3D
DISC INFO:

Disc Title:
Disc Size: 43,339,921,747 bytes
Protection: AACS
Extras: BD-Java, Blu-ray 3D
BDInfo: 0.7.4.0

PLAYLIST REPORT:

Name: 00202.MPLS
Length: 1:36:17.772 (h:m:s.ms)
Size: 39,184,908,288 bytes
Total Bitrate: 54.26 Mbps

VIDEO:

Codec Bitrate Description
----- ------- -----------
MPEG-4 AVC Video 27999 kbps Left Eye / 1080p / 23.976 fps / 16:9 / High Profile 4.1
MPEG-4 MVC Video 13935 kbps Right Eye

AUDIO:

Codec Language Bitrate Description
----- -------- ------- -----------
DTS-HD Master Audio English 2431 kbps 5.1 / 48 kHz / 2431 kbps / 16-bit (DTS Core: 5.1 / 48 kHz / 1509 kbps / 16-bit)
Dolby Digital Audio Bulgarian 448 kbps 5.1 / 48 kHz / 448 kbps / DN -4dB
Dolby Digital Audio Croatian 448 kbps 5.1 / 48 kHz / 448 kbps / DN -4dB
Dolby Digital Audio Czech 448 kbps 5.1 / 48 kHz / 448 kbps / DN -4dB
Dolby Digital Audio Hebrew 448 kbps 5.1 / 48 kHz / 448 kbps / DN -4dB
Dolby Digital Audio Hungarian 448 kbps 5.1 / 48 kHz / 448 kbps / DN -4dB
Dolby Digital Audio Icelandic 448 kbps 5.1 / 48 kHz / 448 kbps / DN -4dB
Dolby Digital Audio Polish 640 kbps 5.1 / 48 kHz / 640 kbps / DN -4dB
Dolby Digital Audio Portuguese 640 kbps 5.1 / 48 kHz / 640 kbps / DN -4dB
Dolby Digital Audio Romanian 448 kbps 5.1 / 48 kHz / 448 kbps / DN -4dB
Dolby Digital Audio Russian 640 kbps 5.1 / 48 kHz / 640 kbps / DN -4dB
Dolby Digital Audio Slovak 448 kbps 5.1 / 48 kHz / 448 kbps / DN -4dB
Dolby Digital Audio Turkish 640 kbps 5.1 / 48 kHz / 640 kbps / DN -4dB

SUBTITLES:

Codec Language Bitrate Description
----- -------- ------- -----------
Presentation Graphics English 53.074 kbps
Presentation Graphics Arabic 22.915 kbps
Presentation Graphics Bulgarian 40.284 kbps
Presentation Graphics Croatian 37.987 kbps
Presentation Graphics Czech 37.502 kbps
Presentation Graphics Hebrew 31.417 kbps
Presentation Graphics Hungarian 40.413 kbps
Presentation Graphics Icelandic 39.415 kbps
Presentation Graphics Polish 37.727 kbps
Presentation Graphics Portuguese 42.280 kbps
Presentation Graphics Romanian 36.674 kbps
Presentation Graphics Russian 39.373 kbps
Presentation Graphics Slovak 39.947 kbps
Presentation Graphics Slovenian 33.516 kbps
Presentation Graphics Turkish 40.132 kbps

bertuccio
Эксперт
  • Total Posts : 1618
  • Scores: 2446
  • Joined: 2012/04/13 22:05:26
  • Location: Paris
  • Status: offline
Re: Импорт с русской локализацией (обсуждение), том IV 2019/01/15 19:51:43 (ссылка)
bertuccio
Эксперт
  • Total Posts : 1618
  • Scores: 2446
  • Joined: 2012/04/13 22:05:26
  • Location: Paris
  • Status: offline
Re: Импорт с русской локализацией (обсуждение), том IV 2019/01/16 22:26:53 (ссылка)
voovaz
Эксперт
  • Total Posts : 1046
  • Scores: 1251
  • Joined: 2015/09/15 11:14:25
  • Status: offline
Re: Импорт с русской локализацией (обсуждение), том IV 2019/01/17 00:42:56 (ссылка)
+2 (2)
The House with a Clock in Its Walls
DISC INFO:

Disc Title:     THE_HOUSE_WITH_A_CLOCK_IN_ITS_WALLS_2018_EUR
Disc Size:      39,485,173,984 bytes
Protection:     AACS
Extras:         BD-Java
BDInfo:         0.7.4.0

PLAYLIST REPORT:

Name:                   00800.MPLS
Length:                 1:45:03.755 (h:m:s.ms)
Size:                   29,051,222,016 bytes
Total Bitrate:          36.87 Mbps

VIDEO:

Codec                   Bitrate             Description     
-----                   -------             -----------     
MPEG-4 AVC Video        25003 kbps          1080p / 23.976 fps / 16:9 / High Profile 4.1

AUDIO:

Codec                           Language        Bitrate         Description     
-----                           --------        -------         -----------     
Dolby TrueHD/Atmos Audio        English         4722 kbps       7.1 / 48 kHz /  4274 kbps / 24-bit (AC3 Embedded: 5.1 / 48 kHz /   448 kbps)
DTS Audio                       French          768 kbps        5.1 / 48 kHz /   768 kbps / 24-bit
DTS-HD High-Res Audio           German          2046 kbps       7.1 / 48 kHz /  2046 kbps / 24-bit (DTS Core: 5.1 / 48 kHz /  1509 kbps / 24-bit)
DTS Audio                       Russian         768 kbps        5.1 / 48 kHz /   768 kbps / 24-bit
Dolby Digital Audio             English         192 kbps        2.0 / 48 kHz /   192 kbps / DN -4dB / Dolby Surround

SUBTITLES:

Codec                           Language        Bitrate         Description     
-----                           --------        -------         -----------     
Presentation Graphics           English         43.650 kbps                     
Presentation Graphics           French          27.512 kbps                     
Presentation Graphics           German          29.914 kbps                     
Presentation Graphics           Russian         30.225 kbps                     
Presentation Graphics           English         83.590 kbps                     
Presentation Graphics           French          69.320 kbps                     
Presentation Graphics           German          77.016 kbps                     
Presentation Graphics           French          0.199 kbps                      
Presentation Graphics           German          0.185 kbps                      
Presentation Graphics           Russian         0.644 kbps                      

FILES:

Name            Time In         Length          Size            Total Bitrate   
----            -------         ------          ----            -------------   
00800.M2TS      0:00:00.000     1:45:03.755     29,051,222,016  36,868

post edited by voovaz - 2019/01/17 01:29:42
voovaz
Эксперт
  • Total Posts : 1046
  • Scores: 1251
  • Joined: 2015/09/15 11:14:25
  • Status: offline
Re: Импорт с русской локализацией (обсуждение), том IV 2019/01/19 02:34:31 (ссылка)
+3 (3)
Slender Man
Disc Title: 
Disc Size: 26,992,550,852 bytes
Protection: AACS
BD-Java: Yes
Playlist: 00001.MPLS
Size: 23,104,014,336 bytes
Length: 1:33:10.585
Total Bitrate: 33.06 Mbps
Video: MPEG-4 AVC Video / 25855 kbps / 1080p / 23.976 fps / 16:9 / High Profile 4.1
Audio: English / DTS-HD Master Audio / 5.1 / 48 kHz / 2154 kbps / 16-bit (DTS Core: 5.1 / 48 kHz / 1509 kbps / 16-bit)
Audio: Italian / DTS-HD Master Audio / 5.1 / 48 kHz / 2172 kbps / 16-bit (DTS Core: 5.1 / 48 kHz / 1509 kbps / 16-bit)
Audio: Russian / Dolby Digital Audio / 5.1 / 48 kHz / 640 kbps
Subtitle: English / 22.247 kbps
Subtitle: Danish / 21.402 kbps
Subtitle: Estonian / 21.316 kbps
Subtitle: Finnish / 21.100 kbps
Subtitle: Italian / 23.670 kbps
Subtitle: Latvian / 21.422 kbps
Subtitle: Lithuanian / 21.079 kbps
Subtitle: Norwegian / 23.506 kbps
Subtitle: Russian / 26.484 kbps
Subtitle: Swedish / 20.895 kbps
Subtitle: Ukrainian / 23.351 kbps

altar
Любитель
  • Total Posts : 179
  • Scores: 8
  • Joined: 2008/09/04 11:49:28
  • Location: Москва
  • Status: offline
Re: Импорт с русской локализацией (обсуждение), том IV 2019/01/20 21:09:29 (ссылка)
+2 (2)
На французской 2D версии "Конг: Остров черепа" русского нет. Можно исключить из списка. Русский только на 3D.
voovaz
Эксперт
  • Total Posts : 1046
  • Scores: 1251
  • Joined: 2015/09/15 11:14:25
  • Status: offline
Re: Импорт с русской локализацией (обсуждение), том IV 2019/01/21 10:54:35 (ссылка)
+4 (4)
BlacKkKlansman
DISC INFO:

Disc Title:     BlacKkKlansman
Disc Label:    
Disc Size:      41,574,681,119 bytes
Protection:     AACS
Extras:         BD-Java
BDInfo:         0.7.5.5

PLAYLIST REPORT:

Name:                   00612.MPLS
Length:                 2:15:13.105 (h:m:s.ms)
Size:                   38,592,147,456 bytes
Total Bitrate:          38.05 Mbps

VIDEO:

Codec                   Bitrate             Description
-----                   -------             -----------
MPEG-4 AVC Video        28172 kbps          1080p / 23.976 fps / 16:9 / High Profile 4.1

AUDIO:

Codec                           Language        Bitrate         Description
-----                           --------        -------         -----------
Dolby TrueHD/Atmos Audio        English         4423 kbps       7.1 / 48 kHz /  3975 kbps / 24-bit (AC3 Embedded: 5.1 / 48 kHz /   448 kbps / DN -27dB)
Dolby Digital Audio             Russian         640 kbps        5.1 / 48 kHz /   640 kbps / DN -27dB
Dolby Digital Plus Audio        Hungarian       768 kbps        7.1 / 48 kHz /   768 kbps / DN -27dB (AC3 Embedded: 5.1 / 48 kHz /   448 kbps / DN -27dB)
Dolby Digital Audio             Polish          640 kbps        5.1 / 48 kHz /   640 kbps / DN -27dB

SUBTITLES:

Codec                           Language        Bitrate         Description
-----                           --------        -------         -----------
Presentation Graphics           English         57.659 kbps
Presentation Graphics           Russian         41.850 kbps
Presentation Graphics           Czech           42.928 kbps
Presentation Graphics           Hungarian       43.736 kbps
Presentation Graphics           Polish          42.277 kbps
Presentation Graphics           Bulgarian       45.428 kbps
Presentation Graphics           Croatian        43.456 kbps
Presentation Graphics           Estonian        39.502 kbps
Presentation Graphics           Latvian         42.699 kbps
Presentation Graphics           Lithuanian      42.270 kbps
Presentation Graphics           Romanian        43.619 kbps
Presentation Graphics           Slovenian       35.289 kbps
Presentation Graphics           Russian         0.660 kbps
Presentation Graphics           Hungarian       1.441 kbps

FILES:

Name            Time In         Length          Size            Total Bitrate
----            -------         ------          ----            -------------
00246.M2TS      0:00:00.000     2:15:13.105     38,592,147,456  38,054

prjanick
Меценат
  • Total Posts : 7507
  • Scores: 15055
  • Joined: 2009/12/07 21:14:03
  • Location: СПб
  • Status: online
Re: Импорт с русской локализацией (обсуждение), том IV 2019/01/21 17:46:44 (ссылка)
+5 (5)
Bohemian Rhapsody
 
 
Русский анонсирован в Испании (причем, указывается расширенная версия картины).
 
Будет обычное издание, диджибук и стилбук.
bertuccio
Эксперт
  • Total Posts : 1618
  • Scores: 2446
  • Joined: 2012/04/13 22:05:26
  • Location: Paris
  • Status: offline
Re: Импорт с русской локализацией (обсуждение), том IV 2019/01/23 12:25:03 (ссылка)
+2 (2)
Holmes & Watson      
 
https://www.amazon.co.uk/dp/B07LFVZY94/                                                                                                                 
voovaz
Эксперт
  • Total Posts : 1046
  • Scores: 1251
  • Joined: 2015/09/15 11:14:25
  • Status: offline
Re: Импорт с русской локализацией (обсуждение), том IV 2019/01/23 20:03:50 (ссылка)
+3 (3)
A Star Is Born
DISC INFO:

Disc Title:
Disc Size: 45,187,399,680 bytes
Protection: AACS
Extras: BD-Java
BDInfo: 0.7.5.3

PLAYLIST REPORT:

Name: 00002.MPLS
Length: 2:15:45.137 (h:m:s.ms)
Size: 37,130,919,936 bytes
Total Bitrate: 36.47 Mbps

VIDEO:

Codec Bitrate Description
----- ------- -----------
MPEG-4 AVC Video 24749 kbps 1080p / 23.976 fps / 16:9 / High Profile 4.1

AUDIO:

Codec Language Bitrate Description
----- -------- ------- -----------
Dolby TrueHD/Atmos Audio English 4045 kbps 7.1 / 48 kHz / 3597 kbps / 24-bit (AC3 Embedded: 5.1-EX / 48 kHz / 448 kbps / DN -4dB)
DTS-HD Master Audio English 2225 kbps 5.1 / 48 kHz / 2225 kbps / 16-bit (DTS Core: 5.1 / 48 kHz / 1509 kbps / 16-bit)
Dolby Digital Audio Russian 448 kbps 5.1 / 48 kHz / 448 kbps / DN -4dB
Dolby Digital Audio Czech 448 kbps 5.1 / 48 kHz / 448 kbps / DN -4dB
Dolby Digital Audio Polish 448 kbps 5.1 / 48 kHz / 448 kbps / DN -4dB
Dolby Digital Audio Hungarian 448 kbps 5.1 / 48 kHz / 448 kbps / DN -4dB

SUBTITLES:

Codec Language Bitrate Description
----- -------- ------- -----------
Presentation Graphics English 43.467 kbps
Presentation Graphics Chinese 31.722 kbps
Presentation Graphics Chinese 36.602 kbps
Presentation Graphics Chinese 29.527 kbps
Presentation Graphics Korean 22.270 kbps
Presentation Graphics Arabic 19.993 kbps
Presentation Graphics Bulgarian 32.304 kbps
Presentation Graphics Croatian 28.830 kbps
Presentation Graphics Czech 27.488 kbps
Presentation Graphics Estonian 34.938 kbps
Presentation Graphics Hebrew 27.291 kbps
Presentation Graphics Hungarian 34.524 kbps
Presentation Graphics Icelandic 28.949 kbps
Presentation Graphics Latvian 30.519 kbps
Presentation Graphics Lithuanian 32.638 kbps
Presentation Graphics Polish 35.181 kbps
Presentation Graphics Portuguese 33.428 kbps
Presentation Graphics Romanian 26.975 kbps
Presentation Graphics Russian 33.596 kbps
Presentation Graphics Slovenian 26.437 kbps
Presentation Graphics Thai 36.225 kbps
Presentation Graphics Turkish 35.882 kbps
Presentation Graphics Czech 4.173 kbps
Presentation Graphics Hungarian 4.889 kbps
Presentation Graphics Russian 4.285 kbps

FILES:

Name Time In Length Size Total Bitrate
---- ------- ------ ---- -------------
00018.M2TS 0:00:00.000 2:15:45.137 37,130,919,936 36,469

bertuccio
Эксперт
  • Total Posts : 1618
  • Scores: 2446
  • Joined: 2012/04/13 22:05:26
  • Location: Paris
  • Status: offline
Re: Импорт с русской локализацией (обсуждение), том IV 2019/01/24 14:27:58 (ссылка)
bertuccio
Эксперт
  • Total Posts : 1618
  • Scores: 2446
  • Joined: 2012/04/13 22:05:26
  • Location: Paris
  • Status: offline
Re: Импорт с русской локализацией (обсуждение), том IV 2019/01/25 11:05:40 (ссылка)
prjanick
Меценат
  • Total Posts : 7507
  • Scores: 15055
  • Joined: 2009/12/07 21:14:03
  • Location: СПб
  • Status: online
Re: Импорт с русской локализацией (обсуждение), том IV 2019/01/27 00:06:28 (ссылка)
+3 (3)
bertuccio
The Girl in the Spider´s Web
 
Здесь лежит скандинавская обложка:
 
https://coverfriends.org/files/file/21630-the-girl-in-the-spider%C2%B4s-web-2018/
 
 
Она плохо читается, поэтому продублирую:
 
звук - английский, итальянский, русский, украинский
соответствующие субтитры плюс скандинавские и прибалтийские субтитры
 


Подтверждение из Италии. К названным странам можно добавить еще Францию.
bertuccio
Эксперт
  • Total Posts : 1618
  • Scores: 2446
  • Joined: 2012/04/13 22:05:26
  • Location: Paris
  • Status: offline
Re: Импорт с русской локализацией (обсуждение), том IV 2019/01/28 19:39:51 (ссылка)
+5 (5)
В продолжение темы Written on the Wind - появилась информация из другого источника о русской локализации:
 
http://www.mubis.es/titulos/escrito-sobre-el-viento-blu-ray
 
Тот же источник сообщает о русском на Winchester '73:
 
http://www.mubis.es/titulos/winchester-73-blu-ray
 
Оба релиза выходят 6 марта, оба - Юниверсал
bertuccio
Эксперт
  • Total Posts : 1618
  • Scores: 2446
  • Joined: 2012/04/13 22:05:26
  • Location: Paris
  • Status: offline
Re: Импорт с русской локализацией (обсуждение), том IV 2019/01/28 19:58:06 (ссылка)
+5 (5)
Война и мир Сергея Бондарчука точно выйдет в этом году в Criterion Collection.
 
Анонс с пометкой "blu-ray" уже размещен на страничке выпускающей серию компании Janus Films:
 
http://www.janusfilms.com/films/1909
 
 
bertuccio
Эксперт
  • Total Posts : 1618
  • Scores: 2446
  • Joined: 2012/04/13 22:05:26
  • Location: Paris
  • Status: offline
Re: Импорт с русской локализацией (обсуждение), том IV 2019/01/29 11:45:57 (ссылка)
+3 (3)
The Lost Weekend
 
 
http://www.mubis.es/titulos/dias-sin-huella-blu-ray-2
 
Еще один каталожный релиз Юниверсал, выходящий в Испании 6 марта с русским.
 
Вероятность ошибок, конечно, есть. Но трудно поверить в то, что одна и та же ошибка сделана три раза. Так что, надежда есть.
Page: << < ..2122232425.. > >> Showing page 25 of 29
Jump to:
© 2019 APG vNext Commercial Version 5.5