Правила | Zavvi | Amazon.com Amazon.ca Amazon.co.uk Amazon.de Amazon.fr Amazon.it Amazon.es | OZON.ru

Helpful ReplyHot!Импорт с русской локализацией (обсуждение), том IV

Page: << < ..2627 > Showing page 26 of 27
Author
bertuccio
Эксперт
  • Total Posts : 1593
  • Scores: 2345
  • Joined: 2012/04/13 22:05:26
  • Location: Paris
  • Status: offline
Re: Импорт с русской локализацией (обсуждение), том IV 2019/01/29 14:33:52 (ссылка)
+4 (4)
Американская Milestone Films в скором времени выпустит на BD фильм Михаила Калатозова Я - Куба.
 
Новая реставрация в 4К сделана совместно Мосфильмом и фондом Скорсезе при участии Копполы. Сейчас ее показывают в кинотеатрах.
 
Вопрос только в том, будет ли на фильме русская локализация.
 
В материалах для прессы сказано про оригинальную испано-английскую дорожку плюс оригинальный русский закадровый для советского проката:
 
https://cdn.shopify.com/s/files/1/0150/7896/files/I_am_Cuba_2018_Press_Kit_704f70be-4d8b-4457-a520-c2533f9b2da8.pdf?6127887495450953959
 
 
bertuccio
Эксперт
  • Total Posts : 1593
  • Scores: 2345
  • Joined: 2012/04/13 22:05:26
  • Location: Paris
  • Status: offline
Re: Импорт с русской локализацией (обсуждение), том IV 2019/02/01 11:01:22 (ссылка)
bertuccio
Эксперт
  • Total Posts : 1593
  • Scores: 2345
  • Joined: 2012/04/13 22:05:26
  • Location: Paris
  • Status: offline
Re: Импорт с русской локализацией (обсуждение), том IV 2019/02/01 14:32:51 (ссылка)
+6 (6)
Критерионовский трейлер Войны и мира:
 
https://www.youtube.com/watch?v=3DqanxfecIA#action=share
 
 
prjanick
Меценат
  • Total Posts : 7414
  • Scores: 14894
  • Joined: 2009/12/07 21:14:03
  • Location: СПб
  • Status: offline
Re: Импорт с русской локализацией (обсуждение), том IV 2019/02/02 16:56:15 (ссылка)
+1 (1)
bertuccio
Goosebumps 2: Haunted Halloween
 
https://www.amazon.de/dp/B07JNTYJ3X/




Скандинавская обложка: https://www.blu-ray.com/movies/Goosebumps-2-Haunted-Halloween-Blu-ray/218857/
 
voovaz
Эксперт
  • Total Posts : 1012
  • Scores: 1173
  • Joined: 2015/09/15 11:14:25
  • Status: offline
Re: Импорт с русской локализацией (обсуждение), том IV 2019/02/02 22:48:43 (ссылка)
+2 (2)
Rusalka: Ozero myortvykh FRA
Disc Title: 
Disc Size: 19,944,690,166 bytes
Protection: AACS
BD-Java: No
Playlist: 00000.MPLS
Size: 19,054,215,168 bytes
Length: 1:23:39.400
Total Bitrate: 30.37 Mbps
Video: MPEG-4 AVC Video / 24143 kbps / 1080i / 25 fps / 16:9 / High Profile 4.1
Audio: French / DTS-HD Master Audio / 5.1 / 48 kHz / 2215 kbps / 16-bit (DTS Core: 5.1 / 48 kHz / 1509 kbps / 16-bit)
Audio: Russian / DTS-HD Master Audio / 5.1 / 48 kHz / 2184 kbps / 16-bit (DTS Core: 5.1 / 48 kHz / 1509 kbps / 16-bit)
Subtitle: French / 12.551 kbps

voovaz
Эксперт
  • Total Posts : 1012
  • Scores: 1173
  • Joined: 2015/09/15 11:14:25
  • Status: offline
Re: Импорт с русской локализацией (обсуждение), том IV 2019/02/03 21:55:02 (ссылка)
+2 (2)
Schindler's List - Bonus Disc
QUICK SUMMARY:

Disc Title: Schindler's List Bonus Disc
Disc Label: SCHINDLERSLIST_UPB10
Disc Size: 30,019,280,230 bytes
Protection: AACS
Playlist: 00300.MPLS
Size: 10,553,425,920 bytes
Length: 0:39:56.227
Total Bitrate: 35.23 Mbps
Video: MPEG-4 AVC Video / 31997 kbps / 1080p / 23.976 fps / 16:9 / High Profile 4.1
Audio: English / Dolby Digital Audio / 2.0 / 48 kHz / 192 kbps / DN -27dB
Subtitle: English / 68.744 kbps
Subtitle: French / 56.647 kbps
Subtitle: French / 55.446 kbps
Subtitle: Spanish / 59.364 kbps
Subtitle: Spanish / 58.703 kbps
Subtitle: Japanese / 44.697 kbps
Subtitle: German / 65.064 kbps
Subtitle: Italian / 57.820 kbps
Subtitle: Dutch / 56.455 kbps
Subtitle: Portuguese / 59.875 kbps
Subtitle: Portuguese / 58.408 kbps
Subtitle: Turkish / 61.586 kbps
Subtitle: Russian / 60.386 kbps
Subtitle: Czech / 53.297 kbps
Subtitle: Hungarian / 57.284 kbps
Subtitle: Polish / 54.916 kbps
Subtitle: Thai / 55.154 kbps
Subtitle: Chinese / 43.959 kbps
Subtitle: Chinese / 46.437 kbps
Subtitle: Korean / 42.963 kbps
Subtitle: Arabic / 33.360 kbps
Subtitle: Greek / 63.865 kbps
Subtitle: Hebrew / 40.822 kbps
Subtitle: Bulgarian / 58.066 kbps
Subtitle: Romanian / 58.476 kbps

bertuccio
Эксперт
  • Total Posts : 1593
  • Scores: 2345
  • Joined: 2012/04/13 22:05:26
  • Location: Paris
  • Status: offline
Re: Импорт с русской локализацией (обсуждение), том IV 2019/02/03 22:10:21 (ссылка)
voovaz
Эксперт
  • Total Posts : 1012
  • Scores: 1173
  • Joined: 2015/09/15 11:14:25
  • Status: offline
Re: Импорт с русской локализацией (обсуждение), том IV 2019/02/04 08:32:32 (ссылка)
0
DLL
bertuccio
Эксперт
  • Total Posts : 1593
  • Scores: 2345
  • Joined: 2012/04/13 22:05:26
  • Location: Paris
  • Status: offline
Re: Импорт с русской локализацией (обсуждение), том IV 2019/02/05 14:43:04 (ссылка)
voovaz
Эксперт
  • Total Posts : 1012
  • Scores: 1173
  • Joined: 2015/09/15 11:14:25
  • Status: offline
Re: Импорт с русской локализацией (обсуждение), том IV 2019/02/06 14:53:50 (ссылка)
+5 (5)
Bad Times at the El Royale
DISC INFO:

Disc Title: Bad Times at the El Royale
Disc Label: Bad Times at the El Royale
Disc Size: 47,641,393,551 bytes
Protection: AACS
Extras: BD-Java
BDInfo: 0.7.5.0

PLAYLIST REPORT:

Name: 00601.MPLS
Length: 2:21:37.906 (h:m:s.ms)
Size: 42,080,102,400 bytes
Total Bitrate: 39.61 Mbps

VIDEO:

Codec Bitrate Description
----- ------- -----------
MPEG-4 AVC Video 26580 kbps 1080p / 23.976 fps / 16:9 / High Profile 4.1

AUDIO:

Codec Language Bitrate Description
----- -------- ------- -----------
DTS-HD Master Audio English 4778 kbps 7.1 / 48 kHz / 4778 kbps / 24-bit (DTS Core: 5.1-ES / 48 kHz / 1509 kbps / 24-bit)
Dolby Digital Audio English 448 kbps 5.1 / 48 kHz / 448 kbps
DTS Audio French 768 kbps 5.1 / 48 kHz / 768 kbps / 24-bit
DTS Audio Spanish 768 kbps 5.1 / 48 kHz / 768 kbps / 24-bit
DTS Audio German 768 kbps 5.1 / 48 kHz / 768 kbps / 24-bit
DTS Audio Japanese 768 kbps 5.1 / 48 kHz / 768 kbps / 24-bit
DTS Audio Russian 768 kbps 5.1 / 48 kHz / 768 kbps / 24-bit
Dolby Digital Audio Ukrainian 448 kbps 5.1 / 48 kHz / 448 kbps
DTS Audio Italian 768 kbps 5.1 / 48 kHz / 768 kbps / 24-bit

SUBTITLES:

Codec Language Bitrate Description
----- -------- ------- -----------
Presentation Graphics English 30.319 kbps
Presentation Graphics French 21.265 kbps
Presentation Graphics Spanish 21.955 kbps
Presentation Graphics Danish 21.502 kbps
Presentation Graphics Dutch 20.978 kbps
Presentation Graphics Finnish 21.760 kbps
Presentation Graphics German 25.218 kbps
Presentation Graphics Italian 21.742 kbps
Presentation Graphics Norwegian 22.141 kbps
Presentation Graphics Russian 21.069 kbps
Presentation Graphics Swedish 21.435 kbps
Presentation Graphics Estonian 22.771 kbps
Presentation Graphics Latvian 22.193 kbps
Presentation Graphics Lithuanian 22.175 kbps
Presentation Graphics Ukrainian 22.501 kbps
Presentation Graphics Vietnamese 22.775 kbps
Presentation Graphics French 0.484 kbps
Presentation Graphics Japanese 14.295 kbps
Presentation Graphics Japanese 0.129 kbps

voovaz
Эксперт
  • Total Posts : 1012
  • Scores: 1173
  • Joined: 2015/09/15 11:14:25
  • Status: offline
Re: Импорт с русской локализацией (обсуждение), том IV 2019/02/07 00:11:02 (ссылка)
+3 (3)
Bohemian Rhapsody
DISC INFO:
Disc Title: Bohemian Rhapsody
Disc Size: 47,647,202,257 bytes
Protection: AACS
Extras: BD-Java
BDInfo: 0.7.4.0

PLAYLIST REPORT:

Name: 00800.MPLS
Length: 2:14:37.069 (h:m:s.ms)
Size: 35,972,689,920 bytes
Total Bitrate: 35.63 Mbps

VIDEO:

Codec Bitrate Description
----- ------- -----------
MPEG-4 AVC Video 23204 kbps 1080p / 23.976 fps / 16:9 / High Profile 4.1

AUDIO:

Codec Language Bitrate Description
----- -------- ------- -----------
DTS-HD Master Audio English 4763 kbps 7.1 / 48 kHz / 4763 kbps / 24-bit (DTS Core: 5.1-ES / 48 kHz / 1509 kbps / 24-bit)
Dolby Digital Audio English 224 kbps 2.0 / 48 kHz / 224 kbps
DTS Audio Spanish 768 kbps 5.1 / 48 kHz / 768 kbps / 24-bit
DTS Audio Russian 768 kbps 5.1 / 48 kHz / 768 kbps / 24-bit
Dolby Digital Audio Czech 448 kbps 5.1 / 48 kHz / 448 kbps
Dolby Digital Audio Hindi 448 kbps 5.1 / 48 kHz / 448 kbps
Dolby Digital Audio Hungarian 448 kbps 5.1 / 48 kHz / 448 kbps
Dolby Digital Audio Chinese 448 kbps 5.1 / 48 kHz / 448 kbps
Dolby Digital Audio Polish 448 kbps 5.1 / 48 kHz / 448 kbps
Dolby Digital Audio Turkish 448 kbps 5.1 / 48 kHz / 448 kbps
Dolby Digital Audio Ukrainian 448 kbps 5.1 / 48 kHz / 448 kbps

SUBTITLES:

Codec Language Bitrate Description
----- -------- ------- -----------
Presentation Graphics English 42.807 kbps
Presentation Graphics Spanish 28.661 kbps
Presentation Graphics Russian 28.097 kbps
Presentation Graphics Arabic 16.379 kbps
Presentation Graphics Bulgarian 28.621 kbps
Presentation Graphics Croatian 29.376 kbps
Presentation Graphics Czech 27.725 kbps
Presentation Graphics Estonian 30.692 kbps
Presentation Graphics Greek 31.128 kbps
Presentation Graphics Hebrew 21.412 kbps
Presentation Graphics Hindi 28.243 kbps
Presentation Graphics Hungarian 29.725 kbps
Presentation Graphics Icelandic 28.161 kbps
Presentation Graphics Korean 22.187 kbps
Presentation Graphics Latvian 27.870 kbps
Presentation Graphics Lithuanian 29.730 kbps
Presentation Graphics Chinese 29.606 kbps
Presentation Graphics Polish 23.936 kbps
Presentation Graphics Portuguese 30.852 kbps
Presentation Graphics Romanian 27.543 kbps
Presentation Graphics Serbian 26.549 kbps
Presentation Graphics Slovak 25.791 kbps
Presentation Graphics Slovenian 25.630 kbps
Presentation Graphics Turkish 29.924 kbps
Presentation Graphics Ukrainian 29.496 kbps

FILES:

Name Time In Length Size Total Bitrate
---- ------- ------ ---- -------------
00662.M2TS 0:00:00.000 2:14:37.069 35,972,689,920 35,629

voovaz
Эксперт
  • Total Posts : 1012
  • Scores: 1173
  • Joined: 2015/09/15 11:14:25
  • Status: offline
Re: Импорт с русской локализацией (обсуждение), том IV 2019/02/07 21:43:11 (ссылка)
+3 (3)
Widows
DISC INFO:
Disc Title: Widows
Disc Size: 47,924,833,275 bytes
Protection: AACS
Extras: BD-Java
BDInfo: 0.7.4.0

PLAYLIST REPORT:

Name: 00800.MPLS
Length: 2:09:34.057 (h:m:s.ms)
Size: 38,954,999,808 bytes
Total Bitrate: 40.09 Mbps

VIDEO:

Codec Bitrate Description
----- ------- -----------
MPEG-4 AVC Video 27314 kbps 1080p / 23.976 fps / 16:9 / High Profile 4.1

AUDIO:

Codec Language Bitrate Description
----- -------- ------- -----------
DTS-HD Master Audio English 4732 kbps 7.1 / 48 kHz / 4732 kbps / 24-bit (DTS Core: 5.1 / 48 kHz / 1509 kbps / 24-bit)
DTS Audio Russian 768 kbps 5.1 / 48 kHz / 768 kbps / 24-bit
Dolby Digital Audio Czech 448 kbps 5.1 / 48 kHz / 448 kbps
Dolby Digital Audio Hindi 448 kbps 5.1 / 48 kHz / 448 kbps
Dolby Digital Audio Urdu 448 kbps 5.1 / 48 kHz / 448 kbps
Dolby Digital Audio Hungarian 448 kbps 5.1 / 48 kHz / 448 kbps
Dolby Digital Audio Polish 448 kbps 5.1 / 48 kHz / 448 kbps
Dolby Digital Audio Thai 448 kbps 5.1 / 48 kHz / 448 kbps
Dolby Digital Audio Turkish 448 kbps 5.1 / 48 kHz / 448 kbps
Dolby Digital Audio Ukrainian 448 kbps 5.1 / 48 kHz / 448 kbps

SUBTITLES:

Codec Language Bitrate Description
----- -------- ------- -----------
Presentation Graphics English 45.289 kbps
Presentation Graphics Russian 58.137 kbps
Presentation Graphics Arabic 35.233 kbps
Presentation Graphics Bulgarian 49.106 kbps
Presentation Graphics Chinese 37.394 kbps
Presentation Graphics Croatian 55.365 kbps
Presentation Graphics Czech 50.375 kbps
Presentation Graphics Estonian 56.751 kbps
Presentation Graphics Greek 57.518 kbps
Presentation Graphics Hebrew 42.530 kbps
Presentation Graphics Hindi 51.254 kbps
Presentation Graphics Hungarian 51.337 kbps
Presentation Graphics Icelandic 52.944 kbps
Presentation Graphics Indonesian 58.380 kbps
Presentation Graphics Korean 43.100 kbps
Presentation Graphics Latvian 51.075 kbps
Presentation Graphics Lithuanian 54.453 kbps
Presentation Graphics Malay 65.355 kbps
Presentation Graphics Chinese 41.238 kbps
Presentation Graphics Polish 44.863 kbps
Presentation Graphics Portuguese 59.023 kbps
Presentation Graphics Romanian 52.956 kbps
Presentation Graphics Serbian 51.481 kbps
Presentation Graphics Slovak 45.448 kbps
Presentation Graphics Slovenian 48.765 kbps
Presentation Graphics Thai 47.527 kbps
Presentation Graphics Turkish 55.839 kbps
Presentation Graphics Ukrainian 54.183 kbps
Presentation Graphics Vietnamese 66.508 kbps
Presentation Graphics English 0.060 kbps

FILES:

Name Time In Length Size Total Bitrate
---- ------- ------ ---- -------------
02886.M2TS 0:00:00.000 2:09:34.057 38,954,999,808 40,087

b2zer
Меценат
  • Total Posts : 2064
  • Scores: 1244
  • Joined: 2014/08/28 15:56:57
  • Status: offline
Re: Импорт с русской локализацией (обсуждение), том IV 2019/02/08 16:08:11 (ссылка)
0
Есть ли у кого вот такое издание фильма Хищники? 
 
https://www.amazon.de/Predators-Blu-ray-Adrien-Brody/dp/B003U9W77W/
 
Что там на втором диске? 
BondDM
Любитель
  • Total Posts : 247
  • Scores: 1292
  • Joined: 2016/11/03 15:22:56
  • Location: Украина
  • Status: offline
Re: Импорт с русской локализацией (обсуждение), том IV 2019/02/08 16:18:39 (ссылка)
+1 (1)
Судя по описанию на blu-ray.com , на втором диске цифровая копия.
bertuccio
Эксперт
  • Total Posts : 1593
  • Scores: 2345
  • Joined: 2012/04/13 22:05:26
  • Location: Paris
  • Status: offline
Re: Импорт с русской локализацией (обсуждение), том IV 2019/02/08 23:50:38 (ссылка)
+5 (5)
Иван Грозный Эйзенштейна во Франции:
 
https://www.amazon.fr/Ivan-terrible-Blu-ray-Nikolai-Tcherkassov/dp/B07KZ36H8F/
 
Плюс еще одно издание Александра Невского:
 
https://www.amazon.fr/Alexandre-nevski-Blu-ray-Karen-Maxwell/dp/B07KZHVJ6D/
 
 
bertuccio
Эксперт
  • Total Posts : 1593
  • Scores: 2345
  • Joined: 2012/04/13 22:05:26
  • Location: Paris
  • Status: offline
Re: Импорт с русской локализацией (обсуждение), том IV 2019/02/09 15:58:24 (ссылка)
voovaz
Эксперт
  • Total Posts : 1012
  • Scores: 1173
  • Joined: 2015/09/15 11:14:25
  • Status: offline
Re: Импорт с русской локализацией (обсуждение), том IV 2019/02/09 21:57:27 (ссылка)
+3 (3)
First Man
DISC INFO:

Disc Title:     First Man
Disc Label:     First_Man_2018_EUR
Disc Size:      48,043,792,409 bytes
Protection:     AACS
Extras:         BD-Java
BDInfo:         0.7.5.0

PLAYLIST REPORT:

Name:                   00800.MPLS
Length:                 2:20:59.909 (h:m:s.ms)
Size:                   41,704,409,088 bytes
Total Bitrate:          39.44 Mbps

VIDEO:

Codec                   Bitrate             Description
-----                   -------             -----------
MPEG-4 AVC Video        29972 kbps          1080p / 23.976 fps / 16:9 / High Profile 4.1

AUDIO:

Codec                           Language        Bitrate         Description
-----                           --------        -------         -----------
Dolby TrueHD/Atmos Audio        English         3127 kbps       7.1 / 48 kHz /  2679 kbps / 16-bit (AC3 Embedded: 5.1 / 48 kHz /   448 kbps / DN -4dB)
Dolby Digital Audio             Russian         640 kbps        5.1 / 48 kHz /   640 kbps / DN -4dB
Dolby Digital Audio             Czech           640 kbps        5.1 / 48 kHz /   640 kbps / DN -4dB
Dolby Digital Plus Audio        Hungarian       768 kbps        7.1 / 48 kHz /   768 kbps (DD+ Embedded: 5.1 / 48 kHz /   448 kbps)
Dolby Digital Audio             Polish          640 kbps        5.1 / 48 kHz /   640 kbps / DN -4dB
Dolby Digital Audio             English         192 kbps        2.0 / 48 kHz /   192 kbps / DN -4dB / Dolby Surround

SUBTITLES:

Codec                           Language        Bitrate         Description
-----                           --------        -------         -----------
Presentation Graphics           English         34.376 kbps
Presentation Graphics           Russian         26.075 kbps
Presentation Graphics           Czech           25.137 kbps
Presentation Graphics           Hungarian       26.430 kbps
Presentation Graphics           Polish          22.871 kbps
Presentation Graphics           Greek           30.128 kbps
Presentation Graphics           Bulgarian       25.299 kbps
Presentation Graphics           Croatian        24.754 kbps
Presentation Graphics           Estonian        24.046 kbps
Presentation Graphics           Latvian         23.232 kbps
Presentation Graphics           Lithuanian      25.579 kbps
Presentation Graphics           Romanian        24.775 kbps
Presentation Graphics           Slovenian       20.668 kbps
Presentation Graphics           English         75.314 kbps
Presentation Graphics           Russian         0.529 kbps
Presentation Graphics           Czech           1.169 kbps
Presentation Graphics           Hungarian       1.380 kbps
Presentation Graphics           Polish          0.876 kbps

FILES:

Name            Time In         Length          Size            Total Bitrate
----            -------         ------          ----            -------------
00800.M2TS      0:00:00.000     2:20:59.909     41,704,409,088  39,437

post edited by voovaz - 2019/02/10 14:09:22
prjanick
Меценат
  • Total Posts : 7414
  • Scores: 14894
  • Joined: 2009/12/07 21:14:03
  • Location: СПб
  • Status: offline
Re: Импорт с русской локализацией (обсуждение), том IV 2019/02/09 22:35:58 (ссылка)
+4 (4)
bertuccio
Fantastic Beasts: The Crimes of Grindelwald 2D
 
https://www.zavvi.com/blu-ray/fantastic-beasts-the-crimes-of-grindelwald/11973178.html


Появилась скандинавская обложка: https://www.blu-ray.com/movies/Fantastic-Beasts-The-Crimes-of-Grindelwald-Blu-ray/214933
bertuccio
Эксперт
  • Total Posts : 1593
  • Scores: 2345
  • Joined: 2012/04/13 22:05:26
  • Location: Paris
  • Status: offline
Re: Импорт с русской локализацией (обсуждение), том IV 2019/02/12 11:10:31 (ссылка)
barmaleyd
Ценитель
  • Total Posts : 537
  • Scores: 250
  • Joined: 2014/03/02 12:59:09
  • Status: offline
Re: Импорт с русской локализацией (обсуждение), том IV 2019/02/12 21:40:55 (ссылка)
+3 (3)
На Apollo - появились данные на steelbook -Fantastic Beasts: The Crimes of Grindelwald (3D+2D)
https://www.apollo.ee/fantastilised-elukad-grindelwaldi-kuritood-2d-3d-blu-ray-combo.html
причем, указано, что 2D версия -  Extended Cut (141 мин.) и  только с субтитрами , а 3D  - Theatrical Version (134 мин.) 
Blu-ray 3D
Audio: 3D Theatrical Version: DTS-HD Master Audio: English, German. Dolby Digital: Russian 5.1, French 5.1, Hungarian 5.1, Spanish 5.1, Portuguese 5.1, Romanian 5.1.
Subtr: 3D Theatrical Version: Estonian, Latvian, Lithuanian, English, Russian, Bulgarian, Croatian, French, German, Hungarian, Portuguese, Romanian, Slovenian, Spanish.
Blu-ray 2D
Audio:2D -  Extended Cut: Dolby Atmos: English.
2D Extended Cut:Estonian, Latvian, Lithuanian, English, Russian, Arabic, Bulgarian, Cantonese
 
post edited by barmaleyd - 2019/02/12 21:48:02
Page: << < ..2627 > Showing page 26 of 27
Jump to:
© 2019 APG vNext Commercial Version 5.5