Правила | Zavvi | Amazon.com Amazon.ca Amazon.co.uk Amazon.de Amazon.fr Amazon.it Amazon.es | OZON.ru

Helpful ReplyHot!Импорт с русской локализацией (обсуждение), том IV

Page: << < ..3132333435.. > >> Showing page 34 of 36
Author
DYV
Ценитель
  • Total Posts : 808
  • Scores: 86
  • Joined: 2008/04/14 15:42:35
  • Status: offline
Re: Импорт с русской локализацией (обсуждение), том IV 2019/05/21 13:50:24 (ссылка)
0
Удалено автором :)
prjanick
Меценат
  • Total Posts : 7633
  • Scores: 15319
  • Joined: 2009/12/07 21:14:03
  • Location: СПб
  • Status: offline
Re: Импорт с русской локализацией (обсуждение), том IV 2019/05/21 17:16:22 (ссылка)
+7 (7)
В ближайшее время внесётся:

Война и мирZone ASound: Rus; Subs: Eng
USA
 
Летят журавлиZone ASound: Rus; Subs: Eng
USA
 
Обломок империиZone ASound: Rus; Subs: Eng
USA
 
T-34Zone ASound: Rus; Subs: Eng
USA
 
ТоболZone BSound: Rus; Subs: Deu
Germany
 
Гоголь (Трилогия)Zone BSound: Rus; Subs: Deu
Germany (Steelbook)
 
ГостиZone BSound: Rus; Subs: Deu
Germany
 
Спасти ЛенинградZone BSound: Rus; Subs: Deu
Germany
 
ТанкиZone BSound: Rus; Subs: Fr
France
 
Балканский рубежZone BSound: Rus; Subs: Fr
France
 
Иди и смотриZone BSound: Rus; Subs: Fr
France
 
Favourite, TheZone ABCSound: Eng DTS HDMA 5.1, Ukr DD 5.1, Rus DTS 5.1; Subs: Eng, Ukr, Rus
UK | Spain | Italy | Germany | France | Japan | Scandinavia
 
White Boy RickZone ABCSound: Eng DTS HDMA 5.1, Rus DD 5.1; Subs: Eng, Rus
Poland | Czech | Hungary | Turkey | Greece
 
Instant familyZone ABCSound: Eng DTS HDMA 5.1, Rus DD 5.1; Subs: Eng, Rus
UK | Spain | Italy | Germany | France | Czech | Poland | Greece | Korea | Scandinavia
 
Mary Poppins ReturnsZone ABCSound: Eng DTS HDMA 7.1, Rus DD 5.1; Subs: Eng, Rus
Czech | Slovakia | Poland | Greece | Australia
 
Ralph Breaks the InternetZone ABCSound: Eng DTS HDMA 7.1, Rus DD 5.1; Subs: Eng, Rus
Czech | Slovakia | Poland | Greece | Australia
 
Mule, TheZone ABCSound: Eng DTS HDMA 5.1, Rus DD 5.1; Subs: Eng, Rus
Czech | Slovakia | Poland | Thailand | Korea
 
Over The LimitZone ABCSound: Rus DD 5.1
Poland
 
Escape RoomZone ABCSound: Eng DTS HDMA 5.1, Ukr DD 5.1, Rus DD 5.1; Subs: Eng, Ukr, Rus
UK | Italy | Czech | Slovakia | Poland | Hungary | Greece | Scandinavia
 
Boy ErasedZone ABCSound: Eng DTS HDMA 5.1, Rus DTS 5.1; Subs: Eng, Rus
Czech | Slovakia | Poland | Korea | Hungary
 
Nutcracker and the Four Realms, TheZone ABCSound: Eng DTS HDMA 5.1, Rus DD 5.1; Subs: Eng, Rus
Australia
 
How to Train Your Dragon: The Hidden WorldZone ABCSound: Eng TrueHD 7.1, Rus DD 5.1; Subs: Eng, Rus
Greece (2D) | Germany (3D) | Italy (3D) | Turkey (3D)
 
Dog's Way Home, AZone ABCSound: Eng DTS HDMA 5.1, Ukr DD 5.1, Rus DD 5.1; Subs: Eng, Ukr, Rus
Spain | Scandinavia
 
Mary, Queen of ScotsZone ABCSound: Eng DTS HDMA 5.1, Rus DTS 5.1; Subs: Eng, Rus
Czech | Slovakia | Poland | Korea | Hungary | Greece
 
Lego Movie 2Zone ABCSound: Eng DTS HDMA 7.1, Rus DD 5.1; Subs: Eng, Rus
Czech | Slovakia | Turkey
 
Beyond the BridgeZone BSound: Swi 5.1; Subs: Eng, Rus (Only)
[локализация на русский представлена только субтитрами]

Germany
 
Happy Death Day 2UZone ABCSound: Eng DTS HDMA 5.1, Rus DTS 5.1; Subs: Eng, Rus
Czech | Slovakia | Poland | Korea | Hungary
 
If Beale Street Could TalkZone ABCSound: Eng DTS HDMA 5.1, Rus DD 5.1; Subs: Eng, Rus
Poland | Hungary | Korea | Greece | Thailand | Turkey | Scandinavia
 
Welcome to MarwenZone ABCSound: Eng DTS HDMA 5.1, Rus DD 5.1; Subs: Eng, Rus
Czech | Slovakia | Poland | Hungary
 
Hate U Give, TheZone ABCSound: Eng DTS HDMA 5.1, Rus DTS 5.1; Subs: Eng, Rus
UK | Spain | Italy | Germany | France | Japan | Scandinavia
bertuccio
Эксперт
  • Total Posts : 1712
  • Scores: 2752
  • Joined: 2012/04/13 22:05:26
  • Location: Paris
  • Status: offline
Re: Импорт с русской локализацией (обсуждение), том IV 2019/05/21 20:58:16 (ссылка)
dima230780
Ценитель
  • Total Posts : 669
  • Scores: 141
  • Joined: 2014/09/19 12:24:21
  • Status: offline
Re: Импорт с русской локализацией (обсуждение), том IV 2019/05/22 02:25:35 (ссылка)
+1 (1)
В Австралии выходит серия Pixar Collection....некоторые позиции с русским))
https://www.blu-ray.com/search/?quicksearch=1&quicksearch_country=AU&quicksearch_keyword=PIXAR+Collection&section=bluraymovies
voovaz
Эксперт
  • Total Posts : 1124
  • Scores: 1356
  • Joined: 2015/09/15 11:14:25
  • Status: offline
Re: Импорт с русской локализацией (обсуждение), том IV 2019/05/22 22:08:44 (ссылка)
+3 (3)
A Dog's Way Home
DISC INFO:

Disc Title: Dog's Way Home, A – Blu-ray™
Disc Label: A_DOGS_WAY_HOME
Disc Size: 33,682,724,283 bytes
Protection: AACS
Extras: BD-Java
BDInfo: 0.7.5.5

PLAYLIST REPORT:

Name: 00358.MPLS
Length: 1:35:53.747 (h:m:s.ms)
Size: 13,971,943,104 bytes
Total Bitrate: 19.43 Mbps

(*) Indicates included stream hidden by this playlist.

VIDEO:

Codec Bitrate Description
----- ------- -----------
MPEG-4 AVC Video 26717 kbps 1080p / 23.976 fps / 16:9 / High Profile 4.1

AUDIO:

Codec Language Bitrate Description
----- -------- ------- -----------
DTS-HD Master Audio English 2157 kbps 5.1 / 48 kHz / 2157 kbps / 16-bit (DTS Core: 5.1 / 48 kHz / 1509 kbps / 16-bit)
Dolby Digital Audio Lithuanian 640 kbps 5.1 / 48 kHz / 640 kbps / DN -31dB
DTS-HD Master Audio Portuguese 2178 kbps 5.1 / 48 kHz / 2178 kbps / 16-bit (DTS Core: 5.1 / 48 kHz / 1509 kbps / 16-bit)
Dolby Digital Audio Russian 640 kbps 5.1 / 48 kHz / 640 kbps / DN -31dB
DTS-HD Master Audio Spanish 2157 kbps 5.1 / 48 kHz / 2157 kbps / 16-bit (DTS Core: 5.1 / 48 kHz / 1509 kbps / 16-bit)
Dolby Digital Audio Ukrainian 640 kbps 5.1 / 48 kHz / 640 kbps / DN -31dB

SUBTITLES:

Codec Language Bitrate Description
----- -------- ------- -----------
Presentation Graphics English 32.811 kbps
Presentation Graphics English 41.764 kbps
* Presentation Graphics English 32.815 kbps
* Presentation Graphics English 41.793 kbps
Presentation Graphics Danish 31.132 kbps
Presentation Graphics Estonian 29.488 kbps
Presentation Graphics Finnish 31.241 kbps
Presentation Graphics Latvian 28.587 kbps
Presentation Graphics Lithuanian 31.278 kbps
Presentation Graphics Norwegian 27.170 kbps
Presentation Graphics Portuguese 29.598 kbps
Presentation Graphics Russian 33.795 kbps
Presentation Graphics Spanish 29.899 kbps
Presentation Graphics Swedish 29.827 kbps
Presentation Graphics Ukrainian 33.471 kbps

FILES:

Name Time In Length Size Total Bitrate
---- ------- ------ ---- -------------
00001.M2TS 0:00:00.000 1:29:29.906 13,971,943,104 36,086

bertuccio
Эксперт
  • Total Posts : 1712
  • Scores: 2752
  • Joined: 2012/04/13 22:05:26
  • Location: Paris
  • Status: offline
Re: Импорт с русской локализацией (обсуждение), том IV 2019/05/24 21:18:12 (ссылка)
bertuccio
Эксперт
  • Total Posts : 1712
  • Scores: 2752
  • Joined: 2012/04/13 22:05:26
  • Location: Paris
  • Status: offline
Re: Импорт с русской локализацией (обсуждение), том IV 2019/05/24 21:19:31 (ссылка)
+2 (2)
Большое путешествие в Германии:
 
https://www.amazon.de/Mission-Panda-tierisches-Team-Blu-ray/dp/B07S28VD3L/
bertuccio
Эксперт
  • Total Posts : 1712
  • Scores: 2752
  • Joined: 2012/04/13 22:05:26
  • Location: Paris
  • Status: offline
Re: Импорт с русской локализацией (обсуждение), том IV 2019/05/27 09:47:09 (ссылка)
prjanick
Меценат
  • Total Posts : 7633
  • Scores: 15319
  • Joined: 2009/12/07 21:14:03
  • Location: СПб
  • Status: offline
Re: Импорт с русской локализацией (обсуждение), том IV 2019/05/28 20:10:17 (ссылка)
+2 (2)
Выпуск фильма «Лето» Кирилла Серебренникова во Франции перенесён с 29 мая на 19 июня.
voovaz
Эксперт
  • Total Posts : 1124
  • Scores: 1356
  • Joined: 2015/09/15 11:14:25
  • Status: offline
Re: Импорт с русской локализацией (обсуждение), том IV 2019/05/29 07:17:30 (ссылка)
+2 (2)
Mary Queen of Scots
Disc Title: 
Disc Size: 40,405,307,706 bytes
Protection: AACS
Extras: BD-Java
BDInfo: 0.7.4.0

PLAYLIST REPORT:

Name: 00800.MPLS
Length: 2:04:19.118 (h:m:s.ms)
Size: 36,871,004,160 bytes
Total Bitrate: 39.54 Mbps

VIDEO:

Codec Bitrate Description
----- ------- -----------
MPEG-4 AVC Video 27995 kbps 1080p / 23.976 fps / 16:9 / High Profile 4.1

AUDIO:

Codec Language Bitrate Description
----- -------- ------- -----------
Dolby TrueHD/Atmos Audio English 4345 kbps 7.1 / 48 kHz / 3897 kbps / 24-bit (AC3 Embedded: 5.1 / 48 kHz / 448 kbps / DN -4dB)
Dolby Digital Audio Spanish 640 kbps 5.1 / 48 kHz / 640 kbps / DN -4dB
Dolby Digital Audio Portuguese 640 kbps 5.1 / 48 kHz / 640 kbps / DN -4dB
Dolby Digital Audio Russian 640 kbps 5.1 / 48 kHz / 640 kbps / DN -4dB
Dolby Digital Audio Hungarian 640 kbps 5.1 / 48 kHz / 640 kbps
Dolby Digital Audio Polish 640 kbps 5.1 / 48 kHz / 640 kbps / DN -4dB
Dolby Digital Audio English 192 kbps 2.0 / 48 kHz / 192 kbps / DN -4dB / Dolby Surround

SUBTITLES:

Codec Language Bitrate Description
----- -------- ------- -----------
Presentation Graphics English 30.780 kbps
Presentation Graphics Spanish 27.820 kbps
Presentation Graphics Portuguese 25.456 kbps
Presentation Graphics Russian 26.303 kbps
Presentation Graphics Czech 23.927 kbps
Presentation Graphics Hungarian 25.205 kbps
Presentation Graphics Polish 25.593 kbps
Presentation Graphics Thai 24.497 kbps
Presentation Graphics Chinese 20.425 kbps
Presentation Graphics Chinese 22.776 kbps
Presentation Graphics Chinese 21.737 kbps
Presentation Graphics Indonesian 28.318 kbps
Presentation Graphics Korean 17.061 kbps
Presentation Graphics Greek 28.745 kbps
Presentation Graphics Bulgarian 25.304 kbps
Presentation Graphics Croatian 25.133 kbps
Presentation Graphics Estonian 25.291 kbps
Presentation Graphics Latvian 24.301 kbps
Presentation Graphics Lithuanian 24.446 kbps
Presentation Graphics Romanian 24.561 kbps
Presentation Graphics Slovenian 22.677 kbps
Presentation Graphics English 69.463 kbps
Presentation Graphics Chinese 50.510 kbps
Presentation Graphics Korean 37.968 kbps
Presentation Graphics English 0.334 kbps
Presentation Graphics Spanish 0.744 kbps
Presentation Graphics Portuguese 0.630 kbps
Presentation Graphics Russian 0.514 kbps
Presentation Graphics Hungarian 1.226 kbps

FILES:

Name Time In Length Size Total Bitrate
---- ------- ------ ---- -------------
00800.M2TS 0:00:00.000 2:04:19.118 36,871,004,160 39,545

bertuccio
Эксперт
  • Total Posts : 1712
  • Scores: 2752
  • Joined: 2012/04/13 22:05:26
  • Location: Paris
  • Status: offline
Re: Импорт с русской локализацией (обсуждение), том IV 2019/05/29 16:13:29 (ссылка)
bertuccio
Эксперт
  • Total Posts : 1712
  • Scores: 2752
  • Joined: 2012/04/13 22:05:26
  • Location: Paris
  • Status: offline
Re: Импорт с русской локализацией (обсуждение), том IV 2019/05/31 10:59:44 (ссылка)
+6 (6)
Вий (1967) в США:
 
https://www.blu-ray.com/news/?id=25191
 
Сейчас в продаже ограниченный - 1500 экземпляров - тираж с сайта компании:
 
https://severin-films.com/shop/the-viy-blu/
 
К концу года будет стандартное издание. Надеюсь, что реставрация будет новая - не японская.
bertuccio
Эксперт
  • Total Posts : 1712
  • Scores: 2752
  • Joined: 2012/04/13 22:05:26
  • Location: Paris
  • Status: offline
Re: Импорт с русской локализацией (обсуждение), том IV 2019/06/01 21:20:37 (ссылка)
+3 (3)
Судя по скриншотам, американский Вий будет получше японского.
 
Да и трансфер использован другой. Особенно заметны различия в цветовой гамме.

Attached Image(s)

hdmaniac
Меценат
  • Total Posts : 11191
  • Scores: 10760
  • Joined: 2008/01/26 18:49:41
  • Location: Москва
  • Status: offline
Re: Импорт с русской локализацией (обсуждение), том IV 2019/06/01 22:15:58 (ссылка)
0
bertuccio
Судя по скриншотам, американский Вий будет получше японского.
 

Согласен. Вчера уже предзаказ сделал, и деньги сняли)

BLU-RAY -1320, 4K ULTRA HD - 126
UHD 4K PANASONIC 824GK(B), UBD 4К OPPO 203(A), Sony UBP-X700(B), 
OPPO BDP-93 3D (ABC), LG BP325(C), PS 4 (500 Гб "A"), Apple 4K TV
TV SONY 75 XF9005
projector EPSON 4K HDR EH-TW9300, Elite Screens SKT100UHW-E12"
 
voovaz
Эксперт
  • Total Posts : 1124
  • Scores: 1356
  • Joined: 2015/09/15 11:14:25
  • Status: offline
Re: Импорт с русской локализацией (обсуждение), том IV 2019/06/03 20:01:25 (ссылка)
+2 (2)
The Lego Movie 2: The Second Part
Disc Title: The LEGO® Movie 2: The Second Part
Disc Label:
Disc Size: 48,285,969,055 bytes
Protection: AACS
Extras: BD-Java
BDInfo: 0.7.5.3

PLAYLIST REPORT:

Name: 00800.MPLS
Length: 1:47:09.464 (h:m:s.ms)
Size: 27,780,341,760 bytes
Total Bitrate: 34.57 Mbps

VIDEO:

Codec Bitrate Description
----- ------- -----------
MPEG-4 AVC Video 21914 kbps 1080p / 23.976 fps / 16:9 / High Profile 4.1

AUDIO:

Codec Language Bitrate Description
----- -------- ------- -----------
Dolby TrueHD/Atmos Audio English 4166 kbps 7.1 / 48 kHz / 3526 kbps / 16-bit (AC3 Embedded: 5.1-EX / 48 kHz / 640 kbps / DN -4dB)
DTS-HD Master Audio English 2317 kbps 5.1 / 48 kHz / 2317 kbps / 16-bit (DTS Core: 5.1 / 48 kHz / 1509 kbps / 16-bit)
Dolby Digital Audio Czech 448 kbps 5.1 / 48 kHz / 448 kbps / DN -4dB
Dolby Digital Audio Hebrew 448 kbps 5.1 / 48 kHz / 448 kbps / DN -4dB
Dolby Digital Audio Portuguese 448 kbps 5.1 / 48 kHz / 448 kbps / DN -4dB
Dolby Digital Audio Russian 448 kbps 5.1 / 48 kHz / 448 kbps / DN -4dB
Dolby Digital Audio Slovak 448 kbps 5.1 / 48 kHz / 448 kbps / DN -4dB
Dolby Digital Audio Turkish 448 kbps 5.1 / 48 kHz / 448 kbps / DN -4dB
Dolby Digital Audio English 192 kbps 2.0 / 48 kHz / 192 kbps / DN -4dB / Dolby Surround

SUBTITLES:

Codec Language Bitrate Description
----- -------- ------- -----------
Presentation Graphics English 54.298 kbps
Presentation Graphics Czech 40.838 kbps
Presentation Graphics Hebrew 35.562 kbps
Presentation Graphics Portuguese 44.054 kbps
Presentation Graphics Russian 47.373 kbps
Presentation Graphics Slovak 36.214 kbps
Presentation Graphics Turkish 47.208 kbps

FILES:

Name Time In Length Size Total Bitrate
---- ------- ------ ---- -------------
01207.M2TS 0:00:00.000 1:47:09.464 27,780,341,760 34,566

voovaz
Эксперт
  • Total Posts : 1124
  • Scores: 1356
  • Joined: 2015/09/15 11:14:25
  • Status: offline
Re: Импорт с русской локализацией (обсуждение), том IV 2019/06/04 02:47:14 (ссылка)
+2 (2)
Batman and Robin 1997
DISC INFO:

Disc Title:
Disc Size: 45,693,483,023 bytes
Protection: AACS
BDInfo: 0.7.3.65534

PLAYLIST REPORT:

Name: 00800.MPLS
Length: 2:04:52.943 (h:m:s.ms)
Size: 39,430,213,632 bytes
Total Bitrate: 42.10 Mbps

(*) Indicates included stream hidden by this playlist.

VIDEO:

Codec Bitrate Description
----- ------- -----------
MPEG-4 AVC Video 28910 kbps 1080p / 23.976 fps / 16:9 / High Profile 4.1

AUDIO:

Codec Language Bitrate Description
----- -------- ------- -----------
Dolby TrueHD/Atmos Audio English 4793 kbps 7.1 / 48 kHz / 4153 kbps / 24-bit (AC3 Embedded: 5.1-EX / 48 kHz / 640 kbps / DN -4dB)
Dolby Digital Audio English 448 kbps 5.1 / 48 kHz / 448 kbps / DN -4dB
Dolby Digital Audio French 448 kbps 5.1 / 48 kHz / 448 kbps / DN -4dB
Dolby Digital Audio German 448 kbps 5.1 / 48 kHz / 448 kbps / DN -4dB
Dolby Digital Audio Italian 448 kbps 5.1 / 48 kHz / 448 kbps / DN -4dB
Dolby Digital Audio Chinese 192 kbps 2.0 / 48 kHz / 192 kbps / DN -4dB / Dolby Surround
Dolby Digital Audio Spanish 192 kbps 2.0 / 48 kHz / 192 kbps / DN -4dB / Dolby Surround
Dolby Digital Audio Czech 192 kbps 2.0 / 48 kHz / 192 kbps / DN -4dB / Dolby Surround
Dolby Digital Audio Hungarian 448 kbps 5.1 / 48 kHz / 448 kbps / DN -4dB
Dolby Digital Audio Polish 448 kbps 5.1 / 48 kHz / 448 kbps / DN -4dB
Dolby Digital Audio Russian 448 kbps 5.1 / 48 kHz / 448 kbps / DN -4dB
Dolby Digital Audio Thai 448 kbps 5.1 / 48 kHz / 448 kbps / DN -4dB
* Dolby Digital Audio Japanese 448 kbps 5.1 / 48 kHz / 448 kbps / DN -4dB
Dolby Digital Audio English 192 kbps 2.0 / 48 kHz / 192 kbps / DN -4dB / Dolby Surround

SUBTITLES:

Codec Language Bitrate Description
----- -------- ------- -----------
Presentation Graphics English 23.422 kbps
Presentation Graphics French 18.692 kbps
Presentation Graphics German 23.928 kbps
Presentation Graphics Italian 24.932 kbps
Presentation Graphics Chinese 19.049 kbps
Presentation Graphics Spanish 22.195 kbps
Presentation Graphics Arabic 11.865 kbps
Presentation Graphics Czech 19.392 kbps
Presentation Graphics Hungarian 19.496 kbps
Presentation Graphics Polish 18.068 kbps
Presentation Graphics Russian 20.137 kbps
Presentation Graphics Thai 20.290 kbps
* Presentation Graphics Japanese 15.851 kbps
* Presentation Graphics Japanese 29.770 kbps
Presentation Graphics Spanish 0.242 kbps
Presentation Graphics Russian 0.354 kbps
Presentation Graphics Thai 0.336 kbps
* Presentation Graphics Japanese 0.367 kbps

 
Batman Forever 1995
DISC INFO:

Disc Title:
Disc Size: 47,076,628,656 bytes
Protection: AACS
BDInfo: 0.7.3.65534

PLAYLIST REPORT:

Name: 00800.MPLS
Length: 2:01:35.746 (h:m:s.ms)
Size: 37,616,719,872 bytes
Total Bitrate: 41.25 Mbps

(*) Indicates included stream hidden by this playlist.

VIDEO:

Codec Bitrate Description
----- ------- -----------
MPEG-4 AVC Video 27575 kbps 1080p / 23.976 fps / 16:9 / High Profile 4.1

AUDIO:

Codec Language Bitrate Description
----- -------- ------- -----------
Dolby TrueHD/Atmos Audio English 4582 kbps 7.1 / 48 kHz / 4134 kbps / 24-bit (AC3 Embedded: 5.1-EX / 48 kHz / 448 kbps / DN -4dB)
Dolby Digital Audio English 448 kbps 5.1 / 48 kHz / 448 kbps / DN -4dB
Dolby Digital Audio French 640 kbps 5.1 / 48 kHz / 640 kbps / DN -4dB
Dolby Digital Audio German 640 kbps 5.1 / 48 kHz / 640 kbps / DN -4dB
Dolby Digital Audio Italian 640 kbps 5.1 / 48 kHz / 640 kbps / DN -4dB
Dolby Digital Audio Chinese 192 kbps 2.0 / 48 kHz / 192 kbps / DN -4dB / Dolby Surround
Dolby Digital Audio Spanish 192 kbps 2.0 / 48 kHz / 192 kbps / DN -4dB
Dolby Digital Audio Czech 192 kbps 2.0 / 48 kHz / 192 kbps / DN -4dB / Dolby Surround
Dolby Digital Audio Hungarian 448 kbps 5.1 / 48 kHz / 448 kbps / DN -4dB
Dolby Digital Audio Polish 448 kbps 5.1 / 48 kHz / 448 kbps / DN -4dB
Dolby Digital Audio Russian 448 kbps 5.1 / 48 kHz / 448 kbps / DN -4dB
Dolby Digital Audio Thai 192 kbps 2.0 / 48 kHz / 192 kbps / DN -4dB / Dolby Surround
Dolby Digital Audio English 192 kbps 2.0 / 48 kHz / 192 kbps / DN -4dB / Dolby Surround
* Dolby Digital Audio Japanese 640 kbps 5.1 / 48 kHz / 640 kbps / DN -4dB

SUBTITLES:

Codec Language Bitrate Description
----- -------- ------- -----------
Presentation Graphics English 28.485 kbps
Presentation Graphics French 21.033 kbps
Presentation Graphics German 24.871 kbps
Presentation Graphics Italian 23.443 kbps
Presentation Graphics Chinese 21.243 kbps
Presentation Graphics Spanish 23.698 kbps
Presentation Graphics Arabic 14.680 kbps
Presentation Graphics Czech 21.417 kbps
Presentation Graphics Hungarian 22.601 kbps
Presentation Graphics Polish 20.300 kbps
Presentation Graphics Russian 20.507 kbps
Presentation Graphics Thai 22.030 kbps
* Presentation Graphics Japanese 16.595 kbps
* Presentation Graphics Japanese 0.242 kbps
Presentation Graphics French 0.178 kbps
Presentation Graphics German 0.325 kbps
Presentation Graphics Italian 0.445 kbps
Presentation Graphics Spanish 0.461 kbps
Presentation Graphics Czech 0.280 kbps
Presentation Graphics Hungarian 0.292 kbps
Presentation Graphics Polish 0.202 kbps
Presentation Graphics Russian 0.200 kbps
* Presentation Graphics Japanese 32.588 kbps

bertuccio
Эксперт
  • Total Posts : 1712
  • Scores: 2752
  • Joined: 2012/04/13 22:05:26
  • Location: Paris
  • Status: offline
Re: Импорт с русской локализацией (обсуждение), том IV 2019/06/04 09:33:41 (ссылка)
+2 (2)
Im Angesicht des Verbrechens/Касательно преступлений - немецкий сериал с русскими субтитрами:
 
https://bluray-disc.de/blu-ray-filme/134210-im_angesicht_des_verbrechens
bertuccio
Эксперт
  • Total Posts : 1712
  • Scores: 2752
  • Joined: 2012/04/13 22:05:26
  • Location: Paris
  • Status: offline
Re: Импорт с русской локализацией (обсуждение), том IV 2019/06/04 20:56:47 (ссылка)
+7 (7)
fmd1
Любитель
  • Total Posts : 102
  • Scores: 28
  • Joined: 2016/10/11 23:24:17
  • Status: offline
Re: Импорт с русской локализацией (обсуждение), том IV 2019/06/05 04:53:22 (ссылка)
+1 (1)
bertuccio
Обзор Войны и мира
 
http://www.dvdbeaver.com/film/DVDCompare/war_and_peace_blu-ray.htm


 
 
Спасибо за ссылку. Буду ждать другое издание. 4 с лишним часа запихнуть на один BD50... Мда... А ведь выпусти они это добро в варианте BD50 (1-я часть) + BD50 (2-я) + BD25 (3-я) + BD50 (4-я) - цены бы им не было.
 
На некоторых скринах DVD от Russico площадь кадра справа чуть-чуть больше, чем на BD.  
123456789
Любитель
  • Total Posts : 241
  • Scores: 644
  • Joined: 2004/09/04 22:04:22
  • Status: offline
Re: Импорт с русской локализацией (обсуждение), том IV 2019/06/05 06:33:36 (ссылка)
0
fmd1
bertuccio
Обзор Войны и мира
 
http://www.dvdbeaver.com/film/DVDCompare/war_and_peace_blu-ray.htm


 
 
Спасибо за ссылку. Буду ждать другое издание. 4 с лишним часа запихнуть на один BD50... Мда... А ведь выпусти они это добро в варианте BD50 (1-я часть) + BD50 (2-я) + BD25 (3-я) + BD50 (4-я) - цены бы им не было.




А в чем проблема? Заметны какие-то артефакты сжатия?
Page: << < ..3132333435.. > >> Showing page 34 of 36
Jump to:
© 2019 APG vNext Commercial Version 5.5