Правила | Zavvi | Amazon.com Amazon.ca Amazon.co.uk Amazon.de Amazon.fr Amazon.it Amazon.es | OZON.ru

Helpful ReplyHot!Импорт с русской локализацией (обсуждение), том IV

Page: << < ..36373839 Showing page 39 of 39
Author
CHUCKY
Зритель
  • Total Posts : 5
  • Scores: 0
  • Joined: 2019/07/10 00:09:05
  • Status: offline
Re: Импорт с русской локализацией (обсуждение), том IV 2019/07/10 12:42:45 (ссылка)
0
prjanick
Словакия: https://www.martinus.sk/?uItem=297046

И в Японии на cdjapan ещё можно посмотреть, у меня он с телефона не открывается.

Спасибо
CHUCKY
Зритель
  • Total Posts : 5
  • Scores: 0
  • Joined: 2019/07/10 00:09:05
  • Status: offline
Re: Импорт с русской локализацией (обсуждение), том IV 2019/07/10 12:44:14 (ссылка)
0
hdmaniac
CHUCKY
 Может кто-то подскажет где купить фильм Культ Чаки с русским языком всё таки!

Думаю что здесь...


Спасибо
BondDM
Любитель
  • Total Posts : 313
  • Scores: 1674
  • Joined: 2016/11/03 15:22:56
  • Location: Украина
  • Status: offline
Re: Импорт с русской локализацией (обсуждение), том IV 2019/07/10 16:54:41 (ссылка)
0
Получил "Донбасс" из Англии. Диск залочен на зону В, английские субтитры - отключаемые. Из доп. материалов - только трейлер (если не считать буклетик).
voovaz
Эксперт
  • Total Posts : 1176
  • Scores: 1450
  • Joined: 2015/09/15 11:14:25
  • Status: offline
Re: Импорт с русской локализацией (обсуждение), том IV 2019/07/10 22:04:02 (ссылка)
+5 (5)
Alita: Battle Angel
DISC INFO:

Disc Title:
Disc Size: 47,529,635,201 bytes
Protection: AACS
Extras: BD-Java
BDInfo: 0.7.5.3 (compatible layout created by DVDFab 11.0.1.4)

PLAYLIST REPORT:

Name: 00800.MPLS
Length: 2:01:57.309 (h:m:s.ms)
Size: 31,226,683,392 bytes
Total Bitrate: 34.14 Mbps

(*) Indicates included stream hidden by this playlist.

VIDEO:

Codec Bitrate Description
----- ------- -----------
MPEG-4 AVC Video 23537 kbps 1080p / 23.976 fps / 16:9 / High Profile 4.1 /

AUDIO:

Codec Language Bitrate Description
----- -------- ------- -----------
DTS-HD Master Audio English 4893 kbps 7.1 / 48 kHz / 4893 kbps / 24-bit (DTS Core: 5.1-ES / 48 kHz / 1509 kbps / 24-bit)
Dolby Digital Audio English 224 kbps 2.0 / 48 kHz / 224 kbps
DTS Audio Russian 768 kbps 5.1 / 48 kHz / 768 kbps / 24-bit
Dolby Digital Audio Hindi 448 kbps 5.1 / 48 kHz / 448 kbps
Dolby Digital Audio Tamil 448 kbps 5.1 / 48 kHz / 448 kbps
Dolby Digital Audio Telugu 448 kbps 5.1 / 48 kHz / 448 kbps
Dolby Digital Audio Ukrainian 448 kbps 5.1 / 48 kHz / 448 kbps
* DTS Audio Japanese 768 kbps 5.1 / 48 kHz / 768 kbps / 24-bit

SUBTITLES:

Codec Language Bitrate Description
----- -------- ------- -----------
Presentation Graphics English 29.752 kbps
Presentation Graphics Russian 22.724 kbps
Presentation Graphics Estonian 24.03 kbps
Presentation Graphics Hindi 21.838 kbps
Presentation Graphics Latvian 23.409 kbps
Presentation Graphics Lithuanian 23.001 kbps
Presentation Graphics Tamil 26.222 kbps
Presentation Graphics Telugu 20.722 kbps
Presentation Graphics Ukrainian 22.657 kbps
* Presentation Graphics Japanese 15.202 kbps
* Presentation Graphics Japanese 0.083 kbps

voovaz
Эксперт
  • Total Posts : 1176
  • Scores: 1450
  • Joined: 2015/09/15 11:14:25
  • Status: offline
Re: Импорт с русской локализацией (обсуждение), том IV 2019/07/11 02:59:12 (ссылка)
+3 (3)
Alita: Battle Angel 3D

DISC INFO:

Disc Title:
Disc Size: 47,983,228,928 bytes
Protection: AACS
Extras: BD-Java, Blu-ray 3D
BDInfo: 0.7.5.3 (compatible layout created by DVDFab 11.0.1.4)

PLAYLIST REPORT:

Name: 00800.MPLS
Length: 2:01:57.268 (h:m:s.ms)
Size: 44,718,710,784 bytes
Total Bitrate: 48.89 Mbps

VIDEO:

Codec Bitrate Description
----- ------- -----------
MPEG-4 AVC Video 23933 kbps 1080p / 23.976 fps / 16:9 / High Profile 4.1 /
MPEG-4 MVC Video 13026 kbps 1080p / 23.976 fps / Multiview Profile 4.1 /

AUDIO:

Codec Language Bitrate Description
----- -------- ------- -----------
DTS-HD Master Audio English 4893 kbps 7.1 / 48 kHz / 4893 kbps / 24-bit (DTS Core: 5.1-ES / 48 kHz / 1509 kbps / 24-bit)
Dolby Digital Audio English 224 kbps 2.0 / 48 kHz / 224 kbps
Dolby Digital Audio Spanish 448 kbps 5.1 / 48 kHz / 448 kbps
DTS Audio Russian 768 kbps 5.1 / 48 kHz / 768 kbps / 24-bit
Dolby Digital Audio Czech 448 kbps 5.1 / 48 kHz / 448 kbps
Dolby Digital Audio Hindi 448 kbps 5.1 / 48 kHz / 448 kbps
Dolby Digital Audio Hungarian 448 kbps 5.1 / 48 kHz / 448 kbps
Dolby Digital Audio Polish 448 kbps 5.1 / 48 kHz / 448 kbps
Dolby Digital Audio Thai 448 kbps 5.1 / 48 kHz / 448 kbps

SUBTITLES:

Codec Language Bitrate Description
----- -------- ------- -----------
Presentation Graphics English 29.339 kbps
Presentation Graphics Spanish 23.457 kbps
Presentation Graphics Russian 22.889 kbps
Presentation Graphics Chinese 18.15 kbps
Presentation Graphics Czech 20.654 kbps
Presentation Graphics Hindi 21.929 kbps
Presentation Graphics Hungarian 22.803 kbps
Presentation Graphics Korean 15.309 kbps
Presentation Graphics Chinese 18.549 kbps
Presentation Graphics Polish 20.965 kbps
Presentation Graphics Romanian 22.562 kbps
Presentation Graphics Thai 19.057 kbps

 
 
The Aftermath
DISC INFO:

Disc Title: The Aftermath
Disc Label:
Disc Size: 39,975,737,550 bytes
Protection: AACS
Extras: BD-Java
BDInfo: 0.7.5.5

PLAYLIST REPORT:

Name: 00601.MPLS
Length: 1:48:38.011 (h:m:s.ms)
Size: 33,266,135,040 bytes
Total Bitrate: 40.83 Mbps

VIDEO:

Codec Bitrate Description
----- ------- -----------
MPEG-4 AVC Video 30171 kbps 1080p / 23.976 fps / 16:9 / High Profile 4.1

AUDIO:

Codec Language Bitrate Description
----- -------- ------- -----------
DTS-HD Master Audio English 3313 kbps 5.1 / 48 kHz / 3313 kbps / 24-bit (DTS Core: 5.1 / 48 kHz / 1509 kbps / 24-bit)
DTS Audio Russian 768 kbps 5.1 / 48 kHz / 768 kbps / 24-bit
Dolby Digital Audio Czech 448 kbps 5.1 / 48 kHz / 448 kbps / DN -31dB
Dolby Digital Audio Hindi 448 kbps 5.1 / 48 kHz / 448 kbps / DN -31dB
Dolby Digital Audio Hungarian 448 kbps 5.1 / 48 kHz / 448 kbps / DN -31dB
Dolby Digital Audio Chinese 448 kbps 5.1 / 48 kHz / 448 kbps / DN -31dB
Dolby Digital Audio Polish 448 kbps 5.1 / 48 kHz / 448 kbps / DN -31dB
Dolby Digital Audio Thai 448 kbps 5.1 / 48 kHz / 448 kbps / DN -31dB
Dolby Digital Audio Ukrainian 448 kbps 5.1 / 48 kHz / 448 kbps / DN -31dB
Dolby Digital Audio English 224 kbps 2.0 / 48 kHz / 224 kbps / DN -31dB
Dolby Digital Audio Urdu 448 kbps 5.1 / 48 kHz / 448 kbps / DN -31dB

SUBTITLES:

Codec Language Bitrate Description
----- -------- ------- -----------
Presentation Graphics English 21.917 kbps
Presentation Graphics Russian 16.623 kbps
Presentation Graphics Arabic 10.110 kbps
Presentation Graphics Bulgarian 16.554 kbps
Presentation Graphics Chinese 11.637 kbps
Presentation Graphics Croatian 15.823 kbps
Presentation Graphics Czech 16.398 kbps
Presentation Graphics Estonian 16.467 kbps
Presentation Graphics Greek 17.971 kbps
Presentation Graphics Hebrew 11.571 kbps
Presentation Graphics Hindi 15.186 kbps
Presentation Graphics Hungarian 17.135 kbps
Presentation Graphics Icelandic 16.982 kbps
Presentation Graphics Indonesian 18.235 kbps
Presentation Graphics Korean 13.935 kbps
Presentation Graphics Latvian 17.658 kbps
Presentation Graphics Lithuanian 16.407 kbps
Presentation Graphics Malay 20.924 kbps
Presentation Graphics Chinese 15.790 kbps
Presentation Graphics Polish 14.411 kbps
Presentation Graphics Portuguese 18.562 kbps
Presentation Graphics Serbian 16.262 kbps
Presentation Graphics Slovak 14.692 kbps
Presentation Graphics Slovenian 15.558 kbps
Presentation Graphics Thai 17.382 kbps
Presentation Graphics Ukrainian 17.518 kbps
Presentation Graphics Vietnamese 19.550 kbps
Presentation Graphics Russian 41.339 kbps
Presentation Graphics Korean 34.586 kbps
Presentation Graphics Chinese 14.928 kbps
Presentation Graphics Romanian 16.755 kbps
Presentation Graphics English 0.550 kbps

FILES:

Name Time In Length Size Total Bitrate
---- ------- ------ ---- -------------
02886.M2TS 0:00:00.000 1:48:38.011 33,266,135,040 40,830

bertuccio
Эксперт
  • Total Posts : 1753
  • Scores: 2883
  • Joined: 2012/04/13 22:05:26
  • Location: Paris
  • Status: offline
Re: Импорт с русской локализацией (обсуждение), том IV 2019/07/11 09:02:05 (ссылка)
+4 (4)
voovaz
Эксперт
  • Total Posts : 1176
  • Scores: 1450
  • Joined: 2015/09/15 11:14:25
  • Status: offline
Re: Импорт с русской локализацией (обсуждение), том IV 2019/07/11 20:41:39 (ссылка)
+2 (2)
Gogol Strashnaya mest GER
Disc Title: 
Disc Size: 38,665,036,183 bytes
Protection: AACS
BD-Java: No
Playlist: 00004.MPLS
Size: 36,036,071,424 bytes
Length: 1:46:28.666
Total Bitrate: 45.12 Mbps
Video: MPEG-4 AVC Video / 35723 kbps / 1080p / 24 fps / 16:9 / High Profile 4.1
Audio: German / DTS-HD Master Audio / 5.1 / 48 kHz / 4127 kbps / 24-bit (DTS Core: 5.1 / 48 kHz / 1509 kbps / 24-bit)
Audio: Russian / DTS-HD Master Audio / 5.1 / 48 kHz / 2814 kbps / 24-bit (DTS Core: 5.1 / 48 kHz / 1509 kbps / 24-bit)
Subtitle: German / 0.086 kbps
Subtitle: German / 33.752 kbps

voovaz
Эксперт
  • Total Posts : 1176
  • Scores: 1450
  • Joined: 2015/09/15 11:14:25
  • Status: offline
Re: Импорт с русской локализацией (обсуждение), том IV 2019/07/12 10:42:53 (ссылка)
+2 (2)
Gogol. Nachalo GER
Disc Title: 
Disc Size: 38,022,694,426 bytes
Protection: AACS
BD-Java: No
Playlist: 00004.MPLS
Size: 35,982,815,232 bytes
Length: 1:45:48.666
Total Bitrate: 45.34 Mbps
Video: MPEG-4 AVC Video / 34865 kbps / 1080p / 24 fps / 16:9 / High Profile 4.1
Audio: German / DTS-HD Master Audio / 5.1 / 48 kHz / 4029 kbps / 24-bit (DTS Core: 5.1 / 48 kHz / 1509 kbps / 24-bit)
Audio: Russian / DTS-HD Master Audio / 5.1 / 48 kHz / 3979 kbps / 24-bit (DTS Core: 5.1 / 48 kHz / 1509 kbps / 24-bit)
Subtitle: German / 0.103 kbps
Subtitle: German / 32.275 kbps

chesterss
Indie & B-Movie Camp
  • Total Posts : 102
  • Scores: 13
  • Joined: 2011/02/27 13:36:39
  • Location: Нижний Новгород
  • Status: offline
Re: Импорт с русской локализацией (обсуждение), том IV 2019/07/12 11:18:26 (ссылка)
0
По поиску не нашел, никто случаем не знает, "Гори гори ясно/Brightburn" с русским планируется зарубежом. У нас то вряд ли выйдет
bertuccio
Эксперт
  • Total Posts : 1753
  • Scores: 2883
  • Joined: 2012/04/13 22:05:26
  • Location: Paris
  • Status: offline
Re: Импорт с русской локализацией (обсуждение), том IV 2019/07/12 13:52:38 (ссылка)
+3 (3)
В продолжение темы Летят журавли.
 
Фильм в этом году выйдет не только во Франции, но, очевидно, и в Criterion Collection.
 
Сегодня в Нью-Йорке начинается показ реставрированной версии:
 
http://filmforum.org/film/mikhail-kalatozovs-the-cranes-are-flying
 
Это релиз Janus Films, издателя Criterion Collection.
 
По ссылке выше можно прочитать, что реставрация сделана в 2К.
 
Однако в твиттере Janus Films утверждается, что это 4К - реставрация:
 
https://twitter.com/janusfilms/status/1148620368023838720
Гоша Твин
Любитель
  • Total Posts : 208
  • Scores: 95
  • Joined: 2017/09/21 13:33:23
  • Location: Санкт-Петербург
  • Status: offline
Re: Импорт с русской локализацией (обсуждение), том IV 2019/07/12 14:58:06 (ссылка)
0
На сайте Белинале, где "Летят журавли" показывались в программе "Классика Берлинале", говорится:
World premiere of the digitally restored version in 2K DCP.
voovaz
Эксперт
  • Total Posts : 1176
  • Scores: 1450
  • Joined: 2015/09/15 11:14:25
  • Status: offline
Re: Импорт с русской локализацией (обсуждение), том IV 2019/07/13 10:43:16 (ссылка)
+3 (3)
Miss Bala

 
DISC INFO:

Disc Title: Miss Bala (2019) – Blu-ray™
Disc Label:
Disc Size: 36,579,647,720 bytes
Protection: AACS
Extras: BD-Java
BDInfo: 0.7.5.5

PLAYLIST REPORT:

Name: 00001.MPLS
Length: 1:43:58.232 (h:m:s.ms)
Size: 30,171,727,872 bytes
Total Bitrate: 38.69 Mbps

VIDEO:

Codec Bitrate Description
----- ------- -----------
MPEG-4 AVC Video 24916 kbps 1080p / 23.976 fps / 16:9 / High Profile 4.1

AUDIO:

Codec Language Bitrate Description
----- -------- ------- -----------
DTS-HD Master Audio English 2220 kbps 5.1 / 48 kHz / 2220 kbps / 16-bit (DTS Core: 5.1 / 48 kHz / 1509 kbps / 16-bit)
DTS-HD Master Audio French 2219 kbps 5.1 / 48 kHz / 2219 kbps / 16-bit (DTS Core: 5.1 / 48 kHz / 1509 kbps / 16-bit)
DTS-HD Master Audio German 2223 kbps 5.1 / 48 kHz / 2223 kbps / 16-bit (DTS Core: 5.1 / 48 kHz / 1509 kbps / 16-bit)
Dolby Digital Audio Russian 640 kbps 5.1 / 48 kHz / 640 kbps / DN -31dB
DTS-HD Master Audio Spanish 2224 kbps 5.1 / 48 kHz / 2224 kbps / 16-bit (DTS Core: 5.1 / 48 kHz / 1509 kbps / 16-bit)
Dolby Digital Audio Turkish 640 kbps 5.1 / 48 kHz / 640 kbps / DN -31dB
Dolby Digital Audio English 192 kbps 2.0 / 48 kHz / 192 kbps / DN -31dB / Dolby Surround

SUBTITLES:

Codec Language Bitrate Description
----- -------- ------- -----------
Presentation Graphics English 20.133 kbps
Presentation Graphics Arabic 11.699 kbps
Presentation Graphics Danish 17.926 kbps
Presentation Graphics Dutch 20.202 kbps
Presentation Graphics Estonian 20.321 kbps
Presentation Graphics Finnish 18.360 kbps
Presentation Graphics French 19.015 kbps
Presentation Graphics German 20.855 kbps
Presentation Graphics Latvian 18.040 kbps
Presentation Graphics Lithuanian 18.591 kbps
Presentation Graphics Norwegian 19.592 kbps
Presentation Graphics Russian 20.011 kbps
Presentation Graphics Spanish 17.580 kbps
Presentation Graphics Swedish 20.759 kbps
Presentation Graphics Turkish 20.906 kbps
Presentation Graphics Ukrainian 19.661 kbps
Presentation Graphics English 58.777 kbps
Presentation Graphics Dutch 48.797 kbps
Presentation Graphics French 50.347 kbps
Presentation Graphics German 56.756 kbps
Presentation Graphics Spanish 51.786 kbps

voovaz
Эксперт
  • Total Posts : 1176
  • Scores: 1450
  • Joined: 2015/09/15 11:14:25
  • Status: offline
Re: Импорт с русской локализацией (обсуждение), том IV 2019/07/13 13:29:43 (ссылка)
+2 (2)
Boy Erased
DISC INFO:
 
Disc Title: Boy Erased
Disc Label:
Disc Size: 47,080,084,359 bytes
Protection: AACS
Extras: BD-Java
BDInfo: 0.7.5.0
 
PLAYLIST REPORT:
 
Name: 00612.MPLS
Length: 1:55:10.904 (h:m:s.ms)
Size: 38,717,767,680 bytes
Total Bitrate: 44.82 Mbps
 
VIDEO:
 
Codec Bitrate Description
----- ------- -----------
MPEG-4 AVC Video 33887 kbps 1080p / 23.976 fps / 16:9 / High Profile 4.1
 
AUDIO:
 
Codec Language Bitrate Description
----- -------- ------- -----------
DTS-HD Master Audio English 3341 kbps 5.1 / 48 kHz / 3341 kbps / 24-bit (DTS Core: 5.1 / 48 kHz / 1509 kbps / 24-bit)
DTS Audio Spanish 768 kbps 5.1 / 48 kHz / 768 kbps / 24-bit
DTS Audio Portuguese 768 kbps 5.1 / 48 kHz / 768 kbps / 24-bit
DTS Audio Russian 768 kbps 5.1 / 48 kHz / 768 kbps / 24-bit
DTS Audio Czech 768 kbps 5.1 / 48 kHz / 768 kbps / 24-bit
DTS Audio Hungarian 768 kbps 5.1 / 48 kHz / 768 kbps / 24-bit
DTS Audio Polish 768 kbps 5.1 / 48 kHz / 768 kbps / 24-bit
 
SUBTITLES:
 
Codec Language Bitrate Description
----- -------- ------- -----------
Presentation Graphics English 35.891 kbps
Presentation Graphics Spanish 29.466 kbps
Presentation Graphics Portuguese 30.102 kbps
Presentation Graphics Turkish 30.441 kbps
Presentation Graphics Russian 30.831 kbps
Presentation Graphics Czech 26.471 kbps
Presentation Graphics Hungarian 29.642 kbps
Presentation Graphics Polish 25.948 kbps
Presentation Graphics Thai 27.485 kbps
Presentation Graphics Chinese 24.076 kbps
Presentation Graphics Chinese 25.749 kbps
Presentation Graphics Korean 19.534 kbps
Presentation Graphics Greek 32.614 kbps
Presentation Graphics Bulgarian 28.473 kbps
Presentation Graphics Romanian 28.581 kbps
Presentation Graphics Spanish 0.107 kbps
Presentation Graphics Portuguese 0.178 kbps
Presentation Graphics Russian 0.797 kbps
Presentation Graphics Czech 0.464 kbps
Presentation Graphics Hungarian 0.564 kbps
 
FILES:
 
Name Time In Length Size Total Bitrate
---- ------- ------ ---- -------------
00246.M2TS 0:00:00.000 1:55:10.904 38,717,767,680 44,819

prjanick
Меценат
  • Total Posts : 7689
  • Scores: 15421
  • Joined: 2009/12/07 21:14:03
  • Location: СПб
  • Status: offline
Re: Импорт с русской локализацией (обсуждение), том IV 2019/07/13 13:45:35 (ссылка)
+3 (3)
bertuccio
The Intruder (2019)
 
https://www.amazon.com/Intruder-Blu-ray-Joseph-Sikora/dp/B07QXMPW68/




Заявлен в Скандинавии, есть обложка: https://www.blu-ray.com/movies/The-Intruder-Blu-ray/242186/
 
bertuccio
Эксперт
  • Total Posts : 1753
  • Scores: 2883
  • Joined: 2012/04/13 22:05:26
  • Location: Paris
  • Status: offline
Re: Импорт с русской локализацией (обсуждение), том IV 2019/07/13 18:42:41 (ссылка)
bertuccio
Эксперт
  • Total Posts : 1753
  • Scores: 2883
  • Joined: 2012/04/13 22:05:26
  • Location: Paris
  • Status: offline
Re: Импорт с русской локализацией (обсуждение), том IV 2019/07/15 07:20:16 (ссылка)
bertuccio
Эксперт
  • Total Posts : 1753
  • Scores: 2883
  • Joined: 2012/04/13 22:05:26
  • Location: Paris
  • Status: offline
Re: Импорт с русской локализацией (обсуждение), том IV 2019/07/16 17:49:06 (ссылка)
+7 (7)
Batman Forever/Batman & Robin - отдельные издания обычных BD с русской локализацией в Польше:
 
https://www.empik.com/batman-forever-schumacher-joel,p1230684547,film-p
 
https://www.empik.com/batman-i-robin-schumacher-joel,p1230684583,film-p
 
BondDM
Любитель
  • Total Posts : 313
  • Scores: 1674
  • Joined: 2016/11/03 15:22:56
  • Location: Украина
  • Status: offline
Re: Импорт с русской локализацией (обсуждение), том IV 2019/07/19 17:26:20 (ссылка)
+3 (3)
 
On Golden Pound (1981)
 


 
DISC INFO:

 
Disc Title:     EN EL ESTANQUE DORADO
Disc Size:      23,841,273,856 bytes
Protection:     AACS(v66)
Extras:         BD-Java
BDInfo:         0.7.5.3 (compatible layout created by DVDFab 11.0.2.7)

 
PLAYLIST REPORT:

 
Name:                   00000.MPLS 
 
Length:                 1:49:17.008 (h:m:s.ms)
Size:                   23,376,089,088 bytes
Total Bitrate:          28.52 Mbps

 
VIDEO:

 
Codec                   Bitrate             Description    
-----                   -------             -----------    
MPEG-4 AVC Video        22000 kbps          1080p / 23.976 fps / 16:9 / High Profile 4.1 /

 
AUDIO:
 
Codec                           Language        Bitrate         Description    
-----                           --------        -------         -----------    
DTS-HD Master Audio             English         1921 kbps       2.0 / 48 kHz / 1921 kbps / 24-bit (DTS Core: 2.0 / 48 kHz / 1509 kbps / 24-bit)
DTS-HD Master Audio             Spanish         1969 kbps       2.0 / 48 kHz / 1969 kbps / 24-bit (DTS Core: 2.0 / 48 kHz / 1509 kbps / 24-bit)
Dolby Digital Audio             Italian         384 kbps        2.0 / 48 kHz / 384 kbps
Dolby Digital Audio             Russian         384 kbps        2.0 / 48 kHz / 384 kbps

 
SUBTITLES:

 
Codec                           Language        Bitrate         Description    
-----                           --------        -------         -----------    
Presentation Graphics           Spanish         36.881 kbps                    
Presentation Graphics           English         38.409 kbps                    
Presentation Graphics           Spanish         0.274 kbps                     
Presentation Graphics           English         0.018 kbps                     

 
FILES:

 
Name            Time In         Length          Size            Total Bitrate  
----            -------         ------          ----            -------------  
00006.M2TS      0:00:00.000     1:49:17.008     23,376,089,088  28,520 kbps

 

 
Winchester '73 (1950)


 
DISC INFO:
 
Disc Title:     WINCHESTER 73
 
Disc Size:      23,963,891,712 bytes
Protection:     AACS(v66)
Extras:         BD-Java
BDInfo:         0.7.5.3 (compatible layout created by DVDFab 11.0.2.7)

 
PLAYLIST REPORT:

 
Name:                   00000.MPLS 
Length:                 1:32:16.697 (h:m:s.ms)
Size:                   23,121,666,048 bytes
Total Bitrate:          33.41 Mbps

 
VIDEO:

 
Codec                   Bitrate             Description    
-----                   -------             -----------    
MPEG-4 AVC Video        25986 kbps          1080p / 23.976 fps / 16:9 / High Profile 4.1 /

 
AUDIO:

 
Codec                           Language        Bitrate         Description    
-----                           --------        -------         -----------    
DTS-HD Master Audio             English         2070 kbps       2.0 / 48 kHz / 2070 kbps / 24-bit (DTS Core: 2.0 / 48 kHz / 1509 kbps / 24-bit)
DTS-HD Master Audio             Spanish         2116 kbps       2.0 / 48 kHz / 2116 kbps / 24-bit (DTS Core: 2.0 / 48 kHz / 1509 kbps / 24-bit)
Dolby Digital Audio             Italian         384 kbps        2.0 / 48 kHz / 384 kbps
Dolby Digital Audio             Russian         384 kbps        2.0 / 48 kHz / 384 kbps
Dolby Digital Audio             English         384 kbps        2.0 / 48 kHz / 384 kbps

 
SUBTITLES:

 
Codec                           Language        Bitrate         Description    
-----                           --------        -------         -----------    
Presentation Graphics           Spanish         31.451 kbps                    
Presentation Graphics           English         35.897 kbps                    
Presentation Graphics           Spanish         0.051 kbps                     

 
FILES:

 
Name            Time In         Length          Size            Total Bitrate  
----            -------         ------          ----            -------------  
00007.M2TS      0:00:00.000     1:32:16.697     23,121,666,048  33,408 kbps

 
 
 
post edited by BondDM - 2019/07/19 17:33:43
bertuccio
Эксперт
  • Total Posts : 1753
  • Scores: 2883
  • Joined: 2012/04/13 22:05:26
  • Location: Paris
  • Status: offline
Re: Импорт с русской локализацией (обсуждение), том IV 2019/07/19 18:00:53 (ссылка)
+2 (2)
Пиковая дама: Зазеркалье в Германии
 
https://bluray-disc.de/blu-ray-filme/135582-queen_of_spades_through_the_looking_glass
voovaz
Эксперт
  • Total Posts : 1176
  • Scores: 1450
  • Joined: 2015/09/15 11:14:25
  • Status: offline
Re: Импорт с русской локализацией (обсуждение), том IV 2019/07/20 12:15:47 (ссылка)
+2 (2)
The Intruder
DISC INFO:

Disc Title:
Disc Size: 34,808,396,117 bytes
Protection: AACS
Extras: BD-Java
BDInfo: 0.7.5.3 (compatible layout created by DVDFab 11.0.1.4)

PLAYLIST REPORT:

Name: 00001.MPLS
Length: 1:42:00.864 (h:m:s.ms)
Size: 28,195,184,640 bytes
Total Bitrate: 36.85 Mbps

VIDEO:

Codec Bitrate Description
----- ------- -----------
MPEG-4 AVC Video 24946 kbps 1080p / 23.976 fps / 16:9 / High Profile 4.1 /

AUDIO:

Codec Language Bitrate Description
----- -------- ------- -----------
DTS-HD Master Audio English 2166 kbps 5.1 / 48 kHz / 2166 kbps / 16-bit (DTS Core: 5.1 / 48 kHz / 1509 kbps / 16-bit)
Dolby Digital Audio English 640 kbps 5.1 / 48 kHz / 640 kbps
Dolby Digital Audio English 640 kbps 5.1 / 48 kHz / 640 kbps
Dolby Digital Audio French 640 kbps 5.1 / 48 kHz / 640 kbps
Dolby Digital Audio French 640 kbps 5.1 / 48 kHz / 640 kbps
Dolby Digital Audio Russian 640 kbps 5.1 / 48 kHz / 640 kbps
DTS-HD Master Audio Spanish 2166 kbps 5.1 / 48 kHz / 2166 kbps / 16-bit (DTS Core: 5.1 / 48 kHz / 1509 kbps / 16-bit)
Dolby Digital Audio Spanish 640 kbps 5.1 / 48 kHz / 640 kbps
Dolby Digital Audio English 192 kbps 2.0 / 48 kHz / 192 kbps

SUBTITLES:

Codec Language Bitrate Description
----- -------- ------- -----------
Presentation Graphics English 39.186 kbps
Presentation Graphics English 34.481 kbps
Presentation Graphics English 39.16 kbps
Presentation Graphics English 34.498 kbps
Presentation Graphics Chinese 27.275 kbps
Presentation Graphics Chinese 29.048 kbps
Presentation Graphics Danish 28.154 kbps
Presentation Graphics Estonian 28.833 kbps
Presentation Graphics Finnish 26.715 kbps
Presentation Graphics French 21.073 kbps
Presentation Graphics Korean 29.62 kbps
Presentation Graphics Latvian 28.265 kbps
Presentation Graphics Lithuanian 27.598 kbps
Presentation Graphics Norwegian 27.304 kbps
Presentation Graphics Russian 28.696 kbps
Presentation Graphics Spanish 32.49 kbps
Presentation Graphics Spanish 28.776 kbps
Presentation Graphics Swedish 26.491 kbps
Presentation Graphics Thai 33.436 kbps
Presentation Graphics Ukrainian 34.644 kbps
Presentation Graphics Vietnamese 34.59 kbps
Presentation Graphics English 69.52 kbps
Presentation Graphics English 60.731 kbps
Presentation Graphics Chinese 47.298 kbps
Presentation Graphics Korean 48.808 kbps
Presentation Graphics Spanish 53.211 kbps
Presentation Graphics Spanish 59.031 kbps
Presentation Graphics Thai 56.358 kbps

Page: << < ..36373839 Showing page 39 of 39
Jump to:
© 2019 APG vNext Commercial Version 5.5