Правила | Zavvi | Amazon.com Amazon.ca Amazon.co.uk Amazon.de Amazon.fr Amazon.it Amazon.es | OZON.ru

Helpful ReplyHot!Импорт с русской локализацией (обсуждение), том IV

Page: << < ..3637383940.. > >> Showing page 39 of 53
Author
voovaz
Эксперт
  • Total Posts : 1291
  • Scores: 1735
  • Joined: 2015/09/15 11:14:25
  • Status: offline
Re: Импорт с русской локализацией (обсуждение), том IV 2019/07/11 20:41:39 (ссылка)
+2 (2)
Gogol Strashnaya mest GER
Disc Title: 
Disc Size: 38,665,036,183 bytes
Protection: AACS
BD-Java: No
Playlist: 00004.MPLS
Size: 36,036,071,424 bytes
Length: 1:46:28.666
Total Bitrate: 45.12 Mbps
Video: MPEG-4 AVC Video / 35723 kbps / 1080p / 24 fps / 16:9 / High Profile 4.1
Audio: German / DTS-HD Master Audio / 5.1 / 48 kHz / 4127 kbps / 24-bit (DTS Core: 5.1 / 48 kHz / 1509 kbps / 24-bit)
Audio: Russian / DTS-HD Master Audio / 5.1 / 48 kHz / 2814 kbps / 24-bit (DTS Core: 5.1 / 48 kHz / 1509 kbps / 24-bit)
Subtitle: German / 0.086 kbps
Subtitle: German / 33.752 kbps

voovaz
Эксперт
  • Total Posts : 1291
  • Scores: 1735
  • Joined: 2015/09/15 11:14:25
  • Status: offline
Re: Импорт с русской локализацией (обсуждение), том IV 2019/07/12 10:42:53 (ссылка)
+2 (2)
Gogol. Nachalo GER
Disc Title: 
Disc Size: 38,022,694,426 bytes
Protection: AACS
BD-Java: No
Playlist: 00004.MPLS
Size: 35,982,815,232 bytes
Length: 1:45:48.666
Total Bitrate: 45.34 Mbps
Video: MPEG-4 AVC Video / 34865 kbps / 1080p / 24 fps / 16:9 / High Profile 4.1
Audio: German / DTS-HD Master Audio / 5.1 / 48 kHz / 4029 kbps / 24-bit (DTS Core: 5.1 / 48 kHz / 1509 kbps / 24-bit)
Audio: Russian / DTS-HD Master Audio / 5.1 / 48 kHz / 3979 kbps / 24-bit (DTS Core: 5.1 / 48 kHz / 1509 kbps / 24-bit)
Subtitle: German / 0.103 kbps
Subtitle: German / 32.275 kbps

chesterss
Indie & B-Movie Camp
  • Total Posts : 109
  • Scores: 14
  • Joined: 2011/02/27 13:36:39
  • Location: Нижний Новгород
  • Status: offline
Re: Импорт с русской локализацией (обсуждение), том IV 2019/07/12 11:18:26 (ссылка)
0
По поиску не нашел, никто случаем не знает, "Гори гори ясно/Brightburn" с русским планируется зарубежом. У нас то вряд ли выйдет
bertuccio
Эксперт
  • Total Posts : 1892
  • Scores: 3341
  • Joined: 2012/04/13 22:05:26
  • Location: Paris
  • Status: offline
Re: Импорт с русской локализацией (обсуждение), том IV 2019/07/12 13:52:38 (ссылка)
+3 (3)
В продолжение темы Летят журавли.
 
Фильм в этом году выйдет не только во Франции, но, очевидно, и в Criterion Collection.
 
Сегодня в Нью-Йорке начинается показ реставрированной версии:
 
http://filmforum.org/film/mikhail-kalatozovs-the-cranes-are-flying
 
Это релиз Janus Films, издателя Criterion Collection.
 
По ссылке выше можно прочитать, что реставрация сделана в 2К.
 
Однако в твиттере Janus Films утверждается, что это 4К - реставрация:
 
https://twitter.com/janusfilms/status/1148620368023838720
Гоша Твин
Любитель
  • Total Posts : 232
  • Scores: 106
  • Joined: 2017/09/21 13:33:23
  • Location: Санкт-Петербург
  • Status: online
Re: Импорт с русской локализацией (обсуждение), том IV 2019/07/12 14:58:06 (ссылка)
0
На сайте Белинале, где "Летят журавли" показывались в программе "Классика Берлинале", говорится:
World premiere of the digitally restored version in 2K DCP.
voovaz
Эксперт
  • Total Posts : 1291
  • Scores: 1735
  • Joined: 2015/09/15 11:14:25
  • Status: offline
Re: Импорт с русской локализацией (обсуждение), том IV 2019/07/13 10:43:16 (ссылка)
+3 (3)
Miss Bala

 
DISC INFO:

Disc Title: Miss Bala (2019) – Blu-ray™
Disc Label:
Disc Size: 36,579,647,720 bytes
Protection: AACS
Extras: BD-Java
BDInfo: 0.7.5.5

PLAYLIST REPORT:

Name: 00001.MPLS
Length: 1:43:58.232 (h:m:s.ms)
Size: 30,171,727,872 bytes
Total Bitrate: 38.69 Mbps

VIDEO:

Codec Bitrate Description
----- ------- -----------
MPEG-4 AVC Video 24916 kbps 1080p / 23.976 fps / 16:9 / High Profile 4.1

AUDIO:

Codec Language Bitrate Description
----- -------- ------- -----------
DTS-HD Master Audio English 2220 kbps 5.1 / 48 kHz / 2220 kbps / 16-bit (DTS Core: 5.1 / 48 kHz / 1509 kbps / 16-bit)
DTS-HD Master Audio French 2219 kbps 5.1 / 48 kHz / 2219 kbps / 16-bit (DTS Core: 5.1 / 48 kHz / 1509 kbps / 16-bit)
DTS-HD Master Audio German 2223 kbps 5.1 / 48 kHz / 2223 kbps / 16-bit (DTS Core: 5.1 / 48 kHz / 1509 kbps / 16-bit)
Dolby Digital Audio Russian 640 kbps 5.1 / 48 kHz / 640 kbps / DN -31dB
DTS-HD Master Audio Spanish 2224 kbps 5.1 / 48 kHz / 2224 kbps / 16-bit (DTS Core: 5.1 / 48 kHz / 1509 kbps / 16-bit)
Dolby Digital Audio Turkish 640 kbps 5.1 / 48 kHz / 640 kbps / DN -31dB
Dolby Digital Audio English 192 kbps 2.0 / 48 kHz / 192 kbps / DN -31dB / Dolby Surround

SUBTITLES:

Codec Language Bitrate Description
----- -------- ------- -----------
Presentation Graphics English 20.133 kbps
Presentation Graphics Arabic 11.699 kbps
Presentation Graphics Danish 17.926 kbps
Presentation Graphics Dutch 20.202 kbps
Presentation Graphics Estonian 20.321 kbps
Presentation Graphics Finnish 18.360 kbps
Presentation Graphics French 19.015 kbps
Presentation Graphics German 20.855 kbps
Presentation Graphics Latvian 18.040 kbps
Presentation Graphics Lithuanian 18.591 kbps
Presentation Graphics Norwegian 19.592 kbps
Presentation Graphics Russian 20.011 kbps
Presentation Graphics Spanish 17.580 kbps
Presentation Graphics Swedish 20.759 kbps
Presentation Graphics Turkish 20.906 kbps
Presentation Graphics Ukrainian 19.661 kbps
Presentation Graphics English 58.777 kbps
Presentation Graphics Dutch 48.797 kbps
Presentation Graphics French 50.347 kbps
Presentation Graphics German 56.756 kbps
Presentation Graphics Spanish 51.786 kbps

voovaz
Эксперт
  • Total Posts : 1291
  • Scores: 1735
  • Joined: 2015/09/15 11:14:25
  • Status: offline
Re: Импорт с русской локализацией (обсуждение), том IV 2019/07/13 13:29:43 (ссылка)
+2 (2)
Boy Erased
DISC INFO:
 
Disc Title: Boy Erased
Disc Label:
Disc Size: 47,080,084,359 bytes
Protection: AACS
Extras: BD-Java
BDInfo: 0.7.5.0
 
PLAYLIST REPORT:
 
Name: 00612.MPLS
Length: 1:55:10.904 (h:m:s.ms)
Size: 38,717,767,680 bytes
Total Bitrate: 44.82 Mbps
 
VIDEO:
 
Codec Bitrate Description
----- ------- -----------
MPEG-4 AVC Video 33887 kbps 1080p / 23.976 fps / 16:9 / High Profile 4.1
 
AUDIO:
 
Codec Language Bitrate Description
----- -------- ------- -----------
DTS-HD Master Audio English 3341 kbps 5.1 / 48 kHz / 3341 kbps / 24-bit (DTS Core: 5.1 / 48 kHz / 1509 kbps / 24-bit)
DTS Audio Spanish 768 kbps 5.1 / 48 kHz / 768 kbps / 24-bit
DTS Audio Portuguese 768 kbps 5.1 / 48 kHz / 768 kbps / 24-bit
DTS Audio Russian 768 kbps 5.1 / 48 kHz / 768 kbps / 24-bit
DTS Audio Czech 768 kbps 5.1 / 48 kHz / 768 kbps / 24-bit
DTS Audio Hungarian 768 kbps 5.1 / 48 kHz / 768 kbps / 24-bit
DTS Audio Polish 768 kbps 5.1 / 48 kHz / 768 kbps / 24-bit
 
SUBTITLES:
 
Codec Language Bitrate Description
----- -------- ------- -----------
Presentation Graphics English 35.891 kbps
Presentation Graphics Spanish 29.466 kbps
Presentation Graphics Portuguese 30.102 kbps
Presentation Graphics Turkish 30.441 kbps
Presentation Graphics Russian 30.831 kbps
Presentation Graphics Czech 26.471 kbps
Presentation Graphics Hungarian 29.642 kbps
Presentation Graphics Polish 25.948 kbps
Presentation Graphics Thai 27.485 kbps
Presentation Graphics Chinese 24.076 kbps
Presentation Graphics Chinese 25.749 kbps
Presentation Graphics Korean 19.534 kbps
Presentation Graphics Greek 32.614 kbps
Presentation Graphics Bulgarian 28.473 kbps
Presentation Graphics Romanian 28.581 kbps
Presentation Graphics Spanish 0.107 kbps
Presentation Graphics Portuguese 0.178 kbps
Presentation Graphics Russian 0.797 kbps
Presentation Graphics Czech 0.464 kbps
Presentation Graphics Hungarian 0.564 kbps
 
FILES:
 
Name Time In Length Size Total Bitrate
---- ------- ------ ---- -------------
00246.M2TS 0:00:00.000 1:55:10.904 38,717,767,680 44,819

prjanick
Меценат
  • Total Posts : 7852
  • Scores: 15849
  • Joined: 2009/12/07 21:14:03
  • Location: СПб
  • Status: offline
Re: Импорт с русской локализацией (обсуждение), том IV 2019/07/13 13:45:35 (ссылка)
+3 (3)
bertuccio
The Intruder (2019)
 
https://www.amazon.com/Intruder-Blu-ray-Joseph-Sikora/dp/B07QXMPW68/




Заявлен в Скандинавии, есть обложка: https://www.blu-ray.com/movies/The-Intruder-Blu-ray/242186/
 
bertuccio
Эксперт
  • Total Posts : 1892
  • Scores: 3341
  • Joined: 2012/04/13 22:05:26
  • Location: Paris
  • Status: offline
Re: Импорт с русской локализацией (обсуждение), том IV 2019/07/13 18:42:41 (ссылка)
bertuccio
Эксперт
  • Total Posts : 1892
  • Scores: 3341
  • Joined: 2012/04/13 22:05:26
  • Location: Paris
  • Status: offline
Re: Импорт с русской локализацией (обсуждение), том IV 2019/07/15 07:20:16 (ссылка)
bertuccio
Эксперт
  • Total Posts : 1892
  • Scores: 3341
  • Joined: 2012/04/13 22:05:26
  • Location: Paris
  • Status: offline
Re: Импорт с русской локализацией (обсуждение), том IV 2019/07/16 17:49:06 (ссылка)
+7 (7)
Batman Forever/Batman & Robin - отдельные издания обычных BD с русской локализацией в Польше:
 
https://www.empik.com/batman-forever-schumacher-joel,p1230684547,film-p
 
https://www.empik.com/batman-i-robin-schumacher-joel,p1230684583,film-p
 
BondDM
Любитель
  • Total Posts : 385
  • Scores: 2041
  • Joined: 2016/11/03 15:22:56
  • Location: Украина
  • Status: offline
Re: Импорт с русской локализацией (обсуждение), том IV 2019/07/19 17:26:20 (ссылка)
+3 (3)
 
On Golden Pound (1981)
 


 
DISC INFO:

 
Disc Title:     EN EL ESTANQUE DORADO
Disc Size:      23,841,273,856 bytes
Protection:     AACS(v66)
Extras:         BD-Java
BDInfo:         0.7.5.3 (compatible layout created by DVDFab 11.0.2.7)

 
PLAYLIST REPORT:

 
Name:                   00000.MPLS 
 
Length:                 1:49:17.008 (h:m:s.ms)
Size:                   23,376,089,088 bytes
Total Bitrate:          28.52 Mbps

 
VIDEO:

 
Codec                   Bitrate             Description    
-----                   -------             -----------    
MPEG-4 AVC Video        22000 kbps          1080p / 23.976 fps / 16:9 / High Profile 4.1 /

 
AUDIO:
 
Codec                           Language        Bitrate         Description    
-----                           --------        -------         -----------    
DTS-HD Master Audio             English         1921 kbps       2.0 / 48 kHz / 1921 kbps / 24-bit (DTS Core: 2.0 / 48 kHz / 1509 kbps / 24-bit)
DTS-HD Master Audio             Spanish         1969 kbps       2.0 / 48 kHz / 1969 kbps / 24-bit (DTS Core: 2.0 / 48 kHz / 1509 kbps / 24-bit)
Dolby Digital Audio             Italian         384 kbps        2.0 / 48 kHz / 384 kbps
Dolby Digital Audio             Russian         384 kbps        2.0 / 48 kHz / 384 kbps

 
SUBTITLES:

 
Codec                           Language        Bitrate         Description    
-----                           --------        -------         -----------    
Presentation Graphics           Spanish         36.881 kbps                    
Presentation Graphics           English         38.409 kbps                    
Presentation Graphics           Spanish         0.274 kbps                     
Presentation Graphics           English         0.018 kbps                     

 
FILES:

 
Name            Time In         Length          Size            Total Bitrate  
----            -------         ------          ----            -------------  
00006.M2TS      0:00:00.000     1:49:17.008     23,376,089,088  28,520 kbps

 

 
Winchester '73 (1950)


 
DISC INFO:
 
Disc Title:     WINCHESTER 73
 
Disc Size:      23,963,891,712 bytes
Protection:     AACS(v66)
Extras:         BD-Java
BDInfo:         0.7.5.3 (compatible layout created by DVDFab 11.0.2.7)

 
PLAYLIST REPORT:

 
Name:                   00000.MPLS 
Length:                 1:32:16.697 (h:m:s.ms)
Size:                   23,121,666,048 bytes
Total Bitrate:          33.41 Mbps

 
VIDEO:

 
Codec                   Bitrate             Description    
-----                   -------             -----------    
MPEG-4 AVC Video        25986 kbps          1080p / 23.976 fps / 16:9 / High Profile 4.1 /

 
AUDIO:

 
Codec                           Language        Bitrate         Description    
-----                           --------        -------         -----------    
DTS-HD Master Audio             English         2070 kbps       2.0 / 48 kHz / 2070 kbps / 24-bit (DTS Core: 2.0 / 48 kHz / 1509 kbps / 24-bit)
DTS-HD Master Audio             Spanish         2116 kbps       2.0 / 48 kHz / 2116 kbps / 24-bit (DTS Core: 2.0 / 48 kHz / 1509 kbps / 24-bit)
Dolby Digital Audio             Italian         384 kbps        2.0 / 48 kHz / 384 kbps
Dolby Digital Audio             Russian         384 kbps        2.0 / 48 kHz / 384 kbps
Dolby Digital Audio             English         384 kbps        2.0 / 48 kHz / 384 kbps

 
SUBTITLES:

 
Codec                           Language        Bitrate         Description    
-----                           --------        -------         -----------    
Presentation Graphics           Spanish         31.451 kbps                    
Presentation Graphics           English         35.897 kbps                    
Presentation Graphics           Spanish         0.051 kbps                     

 
FILES:

 
Name            Time In         Length          Size            Total Bitrate  
----            -------         ------          ----            -------------  
00007.M2TS      0:00:00.000     1:32:16.697     23,121,666,048  33,408 kbps

 
 
 
post edited by BondDM - 2019/07/19 17:33:43
bertuccio
Эксперт
  • Total Posts : 1892
  • Scores: 3341
  • Joined: 2012/04/13 22:05:26
  • Location: Paris
  • Status: offline
Re: Импорт с русской локализацией (обсуждение), том IV 2019/07/19 18:00:53 (ссылка)
+2 (2)
Пиковая дама: Зазеркалье в Германии
 
https://bluray-disc.de/blu-ray-filme/135582-queen_of_spades_through_the_looking_glass
voovaz
Эксперт
  • Total Posts : 1291
  • Scores: 1735
  • Joined: 2015/09/15 11:14:25
  • Status: offline
Re: Импорт с русской локализацией (обсуждение), том IV 2019/07/20 12:15:47 (ссылка)
+3 (3)
The Intruder
DISC INFO:

Disc Title:
Disc Size: 34,808,396,117 bytes
Protection: AACS
Extras: BD-Java
BDInfo: 0.7.5.3 (compatible layout created by DVDFab 11.0.1.4)

PLAYLIST REPORT:

Name: 00001.MPLS
Length: 1:42:00.864 (h:m:s.ms)
Size: 28,195,184,640 bytes
Total Bitrate: 36.85 Mbps

VIDEO:

Codec Bitrate Description
----- ------- -----------
MPEG-4 AVC Video 24946 kbps 1080p / 23.976 fps / 16:9 / High Profile 4.1 /

AUDIO:

Codec Language Bitrate Description
----- -------- ------- -----------
DTS-HD Master Audio English 2166 kbps 5.1 / 48 kHz / 2166 kbps / 16-bit (DTS Core: 5.1 / 48 kHz / 1509 kbps / 16-bit)
Dolby Digital Audio English 640 kbps 5.1 / 48 kHz / 640 kbps
Dolby Digital Audio English 640 kbps 5.1 / 48 kHz / 640 kbps
Dolby Digital Audio French 640 kbps 5.1 / 48 kHz / 640 kbps
Dolby Digital Audio French 640 kbps 5.1 / 48 kHz / 640 kbps
Dolby Digital Audio Russian 640 kbps 5.1 / 48 kHz / 640 kbps
DTS-HD Master Audio Spanish 2166 kbps 5.1 / 48 kHz / 2166 kbps / 16-bit (DTS Core: 5.1 / 48 kHz / 1509 kbps / 16-bit)
Dolby Digital Audio Spanish 640 kbps 5.1 / 48 kHz / 640 kbps
Dolby Digital Audio English 192 kbps 2.0 / 48 kHz / 192 kbps

SUBTITLES:

Codec Language Bitrate Description
----- -------- ------- -----------
Presentation Graphics English 39.186 kbps
Presentation Graphics English 34.481 kbps
Presentation Graphics English 39.16 kbps
Presentation Graphics English 34.498 kbps
Presentation Graphics Chinese 27.275 kbps
Presentation Graphics Chinese 29.048 kbps
Presentation Graphics Danish 28.154 kbps
Presentation Graphics Estonian 28.833 kbps
Presentation Graphics Finnish 26.715 kbps
Presentation Graphics French 21.073 kbps
Presentation Graphics Korean 29.62 kbps
Presentation Graphics Latvian 28.265 kbps
Presentation Graphics Lithuanian 27.598 kbps
Presentation Graphics Norwegian 27.304 kbps
Presentation Graphics Russian 28.696 kbps
Presentation Graphics Spanish 32.49 kbps
Presentation Graphics Spanish 28.776 kbps
Presentation Graphics Swedish 26.491 kbps
Presentation Graphics Thai 33.436 kbps
Presentation Graphics Ukrainian 34.644 kbps
Presentation Graphics Vietnamese 34.59 kbps
Presentation Graphics English 69.52 kbps
Presentation Graphics English 60.731 kbps
Presentation Graphics Chinese 47.298 kbps
Presentation Graphics Korean 48.808 kbps
Presentation Graphics Spanish 53.211 kbps
Presentation Graphics Spanish 59.031 kbps
Presentation Graphics Thai 56.358 kbps

hdmaniac
Меценат
  • Total Posts : 11539
  • Scores: 12123
  • Joined: 2008/01/26 18:49:41
  • Location: Москва
  • Status: online
Re: Импорт с русской локализацией (обсуждение), том IV 2019/07/21 17:16:31 (ссылка)
0
bertuccio
Получен американский Вий.
 Реставрация - мосфильмовская, о чем говорится в начальных титрах. Отличная.
 Диск мультизонный. Английские субтитры отключаемые.
 В допах - интервью и документалка про советскую фантастику. Все на английском.
Плюс оригинальный советский трейлер. И три дореволюционных короткометражки с русскими интертитрами.

Тоже получил Вий. Реставрация отличная, прикололи наши ч\б короткометражки в стиле ужаса)
Правда без реставрации и звука. Фото чуть позже выложу...
post edited by hdmaniac - 2019/07/21 19:05:30

BLU-RAY -1327, 4K ULTRA HD - 157
UHD 4K PANASONIC 824GK(B), UBD 4К OPPO 203(A), Sony UBP-X700(B), 
OPPO BDP-93 3D (ABC), LG BP325(C), PS 4 (500 Гб "A"), Apple 4K TV
TV SONY 75 XF9005
projector EPSON 4K HDR EH-TW9300, Elite Screens SKT100UHW-E12"
 
bertuccio
Эксперт
  • Total Posts : 1892
  • Scores: 3341
  • Joined: 2012/04/13 22:05:26
  • Location: Paris
  • Status: offline
Re: Импорт с русской локализацией (обсуждение), том IV 2019/07/23 23:10:46 (ссылка)
bertuccio
Эксперт
  • Total Posts : 1892
  • Scores: 3341
  • Joined: 2012/04/13 22:05:26
  • Location: Paris
  • Status: offline
Re: Импорт с русской локализацией (обсуждение), том IV 2019/07/25 11:09:40 (ссылка)
prjanick
Меценат
  • Total Posts : 7852
  • Scores: 15849
  • Joined: 2009/12/07 21:14:03
  • Location: СПб
  • Status: offline
Re: Импорт с русской локализацией (обсуждение), том IV 2019/07/25 14:38:52 (ссылка)
+9 (9)
15 июля в Англии выпустили первый "Джуманджи" с дубляжом в амарее (до этого издание было только в стилбуке как эксклюзив HMV). Так что теперь фильм доступен не только во Франции и Бенилюксе.
 

voovaz
Эксперт
  • Total Posts : 1291
  • Scores: 1735
  • Joined: 2015/09/15 11:14:25
  • Status: offline
Re: Импорт с русской локализацией (обсуждение), том IV 2019/07/26 16:42:02 (ссылка)
+4 (4)
Pet Sematary
DISC INFO:

Disc Title: Pet Sematary
Disc Label:
Disc Size: 47,636,627,168 bytes
Protection: AACS
Extras: BD-Java
BDInfo: 0.7.5.5

PLAYLIST REPORT:

Name: 00800.MPLS
Length: 1:40:49.835 (h:m:s.ms)
Size: 29,722,005,504 bytes
Total Bitrate: 39.30 Mbps

VIDEO:

Codec Bitrate Description
----- ------- -----------
MPEG-4 AVC Video 27105 kbps 1080p / 23.976 fps / 16:9 / High Profile 4.1

AUDIO:

Codec Language Bitrate Description
----- -------- ------- -----------
Dolby TrueHD/Atmos Audio English 4228 kbps 7.1 / 48 kHz / 3588 kbps / 24-bit (AC3 Embedded: 5.1-EX / 48 kHz / 640 kbps / DN -27dB)
Dolby Digital Audio Czech 640 kbps 5.1 / 48 kHz / 640 kbps / DN -27dB
Dolby Digital Audio Japanese 640 kbps 5.1 / 48 kHz / 640 kbps / DN -27dB
Dolby Digital Audio Hungarian 640 kbps 5.1 / 48 kHz / 640 kbps / DN -27dB
Dolby Digital Audio Polish 640 kbps 5.1 / 48 kHz / 640 kbps / DN -27dB
Dolby Digital Audio Russian 640 kbps 5.1 / 48 kHz / 640 kbps / DN -27dB
Dolby Digital Audio Thai 640 kbps 5.1 / 48 kHz / 640 kbps / DN -27dB
Dolby Digital Audio Turkish 640 kbps 5.1 / 48 kHz / 640 kbps / DN -27dB

SUBTITLES:

Codec Language Bitrate Description
----- -------- ------- -----------
Presentation Graphics English 21.028 kbps
Presentation Graphics Arabic 10.669 kbps
Presentation Graphics Malay 22.511 kbps
Presentation Graphics Chinese 17.361 kbps
Presentation Graphics Czech 17.781 kbps
Presentation Graphics Greek 20.973 kbps
Presentation Graphics Hindi 17.740 kbps
Presentation Graphics Icelandic 20.272 kbps
Presentation Graphics Japanese 14.716 kbps
Presentation Graphics Korean 12.476 kbps
Presentation Graphics Hungarian 19.476 kbps
Presentation Graphics Chinese 16.756 kbps
Presentation Graphics Polish 17.951 kbps
Presentation Graphics Portuguese 20.368 kbps
Presentation Graphics Russian 19.387 kbps
Presentation Graphics Romanian 18.385 kbps
Presentation Graphics Slovak 17.274 kbps
Presentation Graphics Thai 15.025 kbps
Presentation Graphics Turkish 20.319 kbps
Presentation Graphics Japanese 0.158 kbps

FILES:

Name Time In Length Size Total Bitrate
---- ------- ------ ---- -------------
00800.M2TS 0:00:00.000 1:40:49.835 29,722,005,504 39,303

BondDM
Любитель
  • Total Posts : 385
  • Scores: 2041
  • Joined: 2016/11/03 15:22:56
  • Location: Украина
  • Status: offline
Re: Импорт с русской локализацией (обсуждение), том IV 2019/07/27 12:36:20 (ссылка)
+3 (3)
Во Франции на 6 ноября анонсированы новые стилбуки
"Три билборда..." 
"Дом странных детей мисс Перегрин"
"Форма воды"
"Отель "Гранд Будапешт"
"Убийство в "Восточном экспрессе"
 
Три последних должны быть с русской локализацией.
post edited by BondDM - 2019/07/28 00:21:49
Page: << < ..3637383940.. > >> Showing page 39 of 53
Jump to:
© 2019 APG vNext Commercial Version 5.5