Правила | Zavvi | Amazon.com Amazon.ca Amazon.co.uk Amazon.de Amazon.fr Amazon.it Amazon.es | OZON.ru

Helpful ReplyHot!Импорт с русской локализацией (обсуждение), том IV

Page: << < ..46474849 > Showing page 48 of 49
Author
Космичъ
Marvel Team
  • Total Posts : 8071
  • Scores: 6472
  • Joined: 2009/09/09 21:15:32
  • Location: Южная столица Архангельской области.
  • Status: offline
Re: Импорт с русской локализацией (обсуждение), том IV 2019/10/06 21:56:50 (ссылка)
+2 (2)
[Если это офф - удалите]
 
По поводу последних "Мстителей": Поюзал английский стилбук. На бонус-диске 'обычное' количество допов для рядового Марвел-издания, весь основной диск отдан под фильм - из допов на нём лишь комментарий и вступление режиссёров. На 2D-диске всего две дорожки (англ. и англ. 2.0) и столько же сабов (англ. и греч. - мой плеер их так обозначил). В общем - не авторинг, а х*ета для одной (двух - если сабы) страны...

Заглядывайте в гости к "Космичёвским позитивам"https://vk.com/club165513147
 
"Умей радоваться мелочам!" правило #32, (с)."Zombieland".
voovaz
Эксперт
  • Total Posts : 1245
  • Scores: 1621
  • Joined: 2015/09/15 11:14:25
  • Status: offline
Re: Импорт с русской локализацией (обсуждение), том IV 2019/10/09 07:20:46 (ссылка)
+6 (6)
Toy Story 4 Bonus Disc
 

DISC INFO:

Disc Title: Toy Story 4 Bonus Disc - Blu-ray™
Disc Label:
Disc Size: 10,689,988,798 bytes
Protection: AACS
Extras: BD-Java
BDInfo: 0.7.5.5

PLAYLIST REPORT:

Name: 00720.MPLS
Length: 0:28:00.178 (h:m:s.ms)
Size: 3,166,033,920 bytes
Total Bitrate: 15.07 Mbps

VIDEO:

Codec Bitrate Description
----- ------- -----------
MPEG-4 AVC Video 13259 kbps 1080p / 23.976 fps / 16:9 / High Profile 4.1

AUDIO:

Codec Language Bitrate Description
----- -------- ------- -----------
Dolby Digital Audio English 320 kbps 2.0 / 48 kHz / 320 kbps / DN -27dB

SUBTITLES:

Codec Language Bitrate Description
----- -------- ------- -----------
Presentation Graphics English 61.885 kbps
Presentation Graphics Portuguese 46.849 kbps
Presentation Graphics Spanish 45.594 kbps
Presentation Graphics Danish 44.744 kbps
Presentation Graphics Dutch 37.688 kbps
Presentation Graphics Finnish 42.634 kbps
Presentation Graphics French 45.425 kbps
Presentation Graphics French 45.435 kbps
Presentation Graphics German 49.066 kbps
Presentation Graphics Italian 48.003 kbps
Presentation Graphics Korean 27.751 kbps
Presentation Graphics Spanish 44.894 kbps
Presentation Graphics Norwegian 43.932 kbps
Presentation Graphics Russian 47.746 kbps
Presentation Graphics Swedish 43.238 kbps
Presentation Graphics Chinese 31.217 kbps

FILES:

Name Time In Length Size Total Bitrate
---- ------- ------ ---- -------------
00911.M2TS 0:00:00.000 0:00:48.298 123,211,776 20,408
00912.M2TS 0:00:48.298 0:03:57.195 448,020,480 15,111
00913.M2TS 0:04:45.493 0:03:42.764 448,585,728 16,110
00914.M2TS 0:08:28.257 0:03:21.826 369,371,136 14,641
00915.M2TS 0:11:50.084 0:04:18.549 477,849,600 14,786
00916.M2TS 0:16:08.634 0:07:20.106 808,292,352 14,693
00917.M2TS 0:23:28.740 0:04:31.187 490,567,680 14,472
00007.M2TS 0:27:59.928 0:00:00.250 135,168 4,321

 
Doom: Annihilation
Disc Title:
Disc Size: 31,670,052,383 bytes
Protection: AACS
BD-Java: Yes
Playlist: 00800.MPLS
Size: 30,854,516,736 bytes
Length: 1:36:39.877
Total Bitrate: 42.56 Mbps
Video: MPEG-4 AVC Video / 33914 kbps / 1080p / 23.976 fps / 16:9 / High Profile 4.1
Audio: English / DTS-HD Master Audio / 5.1 / 48 kHz / 3840 kbps / 24-bit (DTS Core: 5.1 / 48 kHz / 1509 kbps / 24-bit)
Audio: Japanese / DTS Audio / 5.1 / 48 kHz / 768 kbps / 24-bit
Audio: Polish / DTS Audio / 5.1 / 48 kHz / 768 kbps / 24-bit
Audio: Thai / DTS Audio / 5.1 / 48 kHz / 768 kbps / 24-bit
Subtitle: English / 38.918 kbps
Subtitle: Japanese / 20.062 kbps
Subtitle: Russian / 32.294 kbps
Subtitle: Polish / 28.952 kbps
Subtitle: Thai / 26.167 kbps
Subtitle: Chinese / 24.845 kbps
Subtitle: Chinese / 25.106 kbps
Subtitle: Greek / 33.659 kbps
Subtitle: English / 0.311 kbps
Subtitle: Japanese / 0.925 kbps
Subtitle: Thai / 0.341 kbps

post edited by voovaz - 2019/10/09 20:32:55
bertuccio
Эксперт
  • Total Posts : 1857
  • Scores: 3253
  • Joined: 2012/04/13 22:05:26
  • Location: Paris
  • Status: offline
Re: Импорт с русской локализацией (обсуждение), том IV 2019/10/09 13:17:33 (ссылка)
DYV
Ценитель
  • Total Posts : 821
  • Scores: 90
  • Joined: 2008/04/14 15:42:35
  • Status: offline
Re: Импорт с русской локализацией (обсуждение), том IV 2019/10/09 13:31:55 (ссылка)
+1 (1)
bertuccio
Toy Story 4
 
https://www.amazon.fr/Toy-Story-Blu-Ray-Josh-Cooley/dp/B07TK39XF3/


Дисней с русским за границей. Хорошая новость. Может не всё еще потеряно.
bertuccio
Эксперт
  • Total Posts : 1857
  • Scores: 3253
  • Joined: 2012/04/13 22:05:26
  • Location: Paris
  • Status: offline
Re: Импорт с русской локализацией (обсуждение), том IV 2019/10/10 00:19:35 (ссылка)
+8 (8)
Сказка о царе Салтане во Франции:
 
https://www.amazon.fr/Conte-Tsar-saltan-Blu-Ray/dp/B07YTDDKHD/
post edited by bertuccio - 2019/10/10 00:33:07

Attached Image(s)

bertuccio
Эксперт
  • Total Posts : 1857
  • Scores: 3253
  • Joined: 2012/04/13 22:05:26
  • Location: Paris
  • Status: offline
Re: Импорт с русской локализацией (обсуждение), том IV 2019/10/10 15:26:58 (ссылка)
+2 (2)
Maria by Callas - документалка с русскими субтитрами во Франции:
 
https://www.amazon.fr/Maria-Callas-Combo-Collector-Blu-Ray-Livret/dp/B07YMHB1W8/
voovaz
Эксперт
  • Total Posts : 1245
  • Scores: 1621
  • Joined: 2015/09/15 11:14:25
  • Status: offline
Re: Импорт с русской локализацией (обсуждение), том IV 2019/10/10 15:39:49 (ссылка)
+3 (3)
Tolkien
DISC INFO:

Disc Title: Tolkien
Disc Label: TOLKIEN
Disc Size: 45,360,281,524 bytes
Protection: AACS
Extras: BD-Java
BDInfo: 0.7.5.5

PLAYLIST REPORT:

Name: 00350.MPLS
Length: 1:51:42.112 (h:m:s.ms)
Size: 2,019,909,888 bytes
Total Bitrate: 42.41 Mbps

VIDEO:

Codec Bitrate Description
----- ------- -----------
MPEG-4 AVC Video 31194 kbps 1080p / 23.976 fps / 16:9 / High Profile 4.1

AUDIO:

Codec Language Bitrate Description
----- -------- ------- -----------
DTS-HD Master Audio English 3728 kbps 5.1 / 48 kHz / 3728 kbps / 24-bit (DTS Core: 5.1 / 48 kHz / 1509 kbps / 24-bit)
DTS Audio Japanese 768 kbps 5.1 / 48 kHz / 768 kbps / 24-bit
Dolby Digital Audio English 448 kbps 5.1 / 48 kHz / 448 kbps / DN -31dB
DTS Audio French 768 kbps 5.1 / 48 kHz / 768 kbps / 24-bit
DTS Audio Spanish 768 kbps 5.1 / 48 kHz / 768 kbps / 24-bit
DTS Audio German 768 kbps 5.1 / 48 kHz / 768 kbps / 24-bit
DTS Audio Italian 768 kbps 5.1 / 48 kHz / 768 kbps / 24-bit
DTS Audio Russian 768 kbps 5.1 / 48 kHz / 768 kbps / 24-bit
Dolby Digital Audio Chinese 448 kbps 5.1 / 48 kHz / 448 kbps / DN -31dB
Dolby Digital Audio Ukrainian 448 kbps 5.1 / 48 kHz / 448 kbps / DN -31dB
Dolby Digital Audio English 224 kbps 2.0 / 48 kHz / 224 kbps / DN -31dB

SUBTITLES:

Codec Language Bitrate Description
----- -------- ------- -----------
Presentation Graphics Japanese 15.250 kbps
Presentation Graphics English 52.832 kbps
Presentation Graphics Japanese 0.828 kbps
Presentation Graphics French 36.071 kbps
Presentation Graphics Spanish 39.421 kbps
Presentation Graphics Danish 36.233 kbps
Presentation Graphics Dutch 33.639 kbps
Presentation Graphics Finnish 35.736 kbps
Presentation Graphics German 41.412 kbps
Presentation Graphics Italian 37.971 kbps
Presentation Graphics Norwegian 38.018 kbps
Presentation Graphics Russian 38.378 kbps
Presentation Graphics Swedish 36.860 kbps
Presentation Graphics Estonian 37.243 kbps
Presentation Graphics Latvian 38.057 kbps
Presentation Graphics Lithuanian 40.581 kbps
Presentation Graphics Chinese 20.474 kbps
Presentation Graphics Ukrainian 37.469 kbps
Presentation Graphics Vietnamese 43.418 kbps
Presentation Graphics Japanese 43.157 kbps
Presentation Graphics English 117.300 kbps
Presentation Graphics French 118.323 kbps
Presentation Graphics Spanish 102.928 kbps
Presentation Graphics Danish 98.070 kbps
Presentation Graphics Dutch 94.008 kbps
Presentation Graphics Finnish 102.664 kbps
Presentation Graphics German 112.135 kbps
Presentation Graphics Italian 101.337 kbps
Presentation Graphics Norwegian 103.821 kbps
Presentation Graphics Russian 98.356 kbps
Presentation Graphics Swedish 100.814 kbps

bertuccio
Эксперт
  • Total Posts : 1857
  • Scores: 3253
  • Joined: 2012/04/13 22:05:26
  • Location: Paris
  • Status: offline
Re: Импорт с русской локализацией (обсуждение), том IV 2019/10/10 21:58:23 (ссылка)
+2 (2)
The Shining - обещали положить русские субтитры на обычный BD в комплект с 4К, а также на отдельные издания, да, видимо, забыли:
 
https://caps-a-holic.com/c.php?d1=13413&d2=13419&c=5256
 
Увы, мимо
bertuccio
Эксперт
  • Total Posts : 1857
  • Scores: 3253
  • Joined: 2012/04/13 22:05:26
  • Location: Paris
  • Status: offline
Re: Импорт с русской локализацией (обсуждение), том IV 2019/10/11 13:54:37 (ссылка)
trezor78
Гуру
  • Total Posts : 5801
  • Scores: 1270
  • Joined: 2010/10/06 18:50:20
  • Location: Москва
  • Status: offline
Re: Импорт с русской локализацией (обсуждение), том IV 2019/10/12 18:55:14 (ссылка)
+5 (5)
X-Men: Dark Phoenix (UltraHD + BD) UK
https://www.amazon.co.uk/gp/product/B07SN1V96P/ref=ppx_yo_dt_b_asin_title_o00_s00?ie=UTF8&psc=1
 
Издание на руках: русcкая локализация на BD и UltraHD
 
Можно добавить в шапку английский BD:
https://www.amazon.co.uk/...=UTF8&qid=&sr=
 
trezor78
Гуру
  • Total Posts : 5801
  • Scores: 1270
  • Joined: 2010/10/06 18:50:20
  • Location: Москва
  • Status: offline
Re: Импорт с русской локализацией (обсуждение), том IV 2019/10/12 19:18:59 (ссылка)
+2 (2)
Godzilla: King of the Monsters (UltraHD + BD + BD3D) SteelBook FR
 https://www.amazon.fr/God...=1570896908&sr=8-1
 
Издание на руках: русcкая локализация на BD3D и UltraHD
 
З.Ы. Макет держателей дисков обманывает, вместо трех их два :(
Соответственно на одном UltraHD, на другом стопочкой BD + BD3D.
voovaz
Эксперт
  • Total Posts : 1245
  • Scores: 1621
  • Joined: 2015/09/15 11:14:25
  • Status: offline
Re: Импорт с русской локализацией (обсуждение), том IV 2019/10/13 16:50:35 (ссылка)
+2 (2)
Annabelle Comes Home
DISC INFO:

Disc Title:
Disc Size: 40,036,579,014 bytes
Protection: AACS
Extras: BD-Java
BDInfo: 0.7.5.5

PLAYLIST REPORT:

Name: 00800.MPLS
Length: 1:46:05.400 (h:m:s.ms)
Size: 32,361,172,992 bytes
Total Bitrate: 40.67 Mbps

(*) Indicates included stream hidden by this playlist.

VIDEO:

Codec Bitrate Description
----- ------- -----------
MPEG-4 AVC Video 26994 kbps 1080p / 23.976 fps / 16:9 / High Profile 4.1

AUDIO:

Codec Language Bitrate Description
----- -------- ------- -----------
Dolby TrueHD/Atmos Audio English 4004 kbps 7.1 / 48 kHz / 3364 kbps / 24-bit (AC3 Embedded: 5.1-EX / 48 kHz / 640 kbps / DN -27dB)
Dolby Digital Audio English 448 kbps 5.1 / 48 kHz / 448 kbps / DN -27dB
Dolby Digital Audio English 448 kbps 5.1 / 48 kHz / 448 kbps / DN -27dB
Dolby Digital Audio Italian 448 kbps 5.1 / 48 kHz / 448 kbps / DN -27dB
Dolby Digital Audio Spanish 448 kbps 5.1 / 48 kHz / 448 kbps / DN -27dB
Dolby Digital Audio Czech 448 kbps 5.1 / 48 kHz / 448 kbps / DN -27dB
Dolby Digital Audio Hindi 448 kbps 5.1 / 48 kHz / 448 kbps / DN -27dB
Dolby Digital Audio Hungarian 448 kbps 5.1 / 48 kHz / 448 kbps / DN -27dB
Dolby Digital Audio Polish 448 kbps 5.1 / 48 kHz / 448 kbps / DN -27dB
Dolby Digital Audio Russian 448 kbps 5.1 / 48 kHz / 448 kbps / DN -27dB
Dolby Digital Audio Tamil 448 kbps 5.1 / 48 kHz / 448 kbps / DN -27dB
Dolby Digital Audio Telugu 448 kbps 5.1 / 48 kHz / 448 kbps / DN -27dB
Dolby Digital Audio Thai 448 kbps 5.1 / 48 kHz / 448 kbps / DN -27dB
Dolby Digital Audio Turkish 448 kbps 5.1 / 48 kHz / 448 kbps / DN -27dB
* Dolby Digital Audio Japanese 448 kbps 5.1 / 48 kHz / 448 kbps / DN -27dB

SUBTITLES:

Codec Language Bitrate Description
----- -------- ------- -----------
Presentation Graphics English 25.525 kbps
Presentation Graphics Italian 23.664 kbps
Presentation Graphics Spanish 17.006 kbps
Presentation Graphics Chinese 17.191 kbps
Presentation Graphics Chinese 17.061 kbps
Presentation Graphics Korean 12.472 kbps
Presentation Graphics Arabic 10.457 kbps
Presentation Graphics Bulgarian 16.585 kbps
Presentation Graphics Croatian 17.209 kbps
Presentation Graphics Czech 16.694 kbps
Presentation Graphics Danish 15.589 kbps
Presentation Graphics Finnish 17.295 kbps
Presentation Graphics Greek, Ancient (to 1453)17.847 kbps
Presentation Graphics Hebrew 14.485 kbps
Presentation Graphics Hungarian 17.739 kbps
Presentation Graphics Norwegian 16.100 kbps
Presentation Graphics Romanian 16.272 kbps
Presentation Graphics Russian 19.367 kbps
Presentation Graphics Slovenian 15.118 kbps
Presentation Graphics Swedish 16.470 kbps
Presentation Graphics Thai 18.794 kbps
Presentation Graphics Turkish 18.372 kbps
* Presentation Graphics Japanese 11.298 kbps
Presentation Graphics Hindi 0.150 kbps
Presentation Graphics Tamil 1.824 kbps
Presentation Graphics Telugu 1.286 kbps
* Presentation Graphics Japanese 0.650 kbps
Presentation Graphics Portuguese 17.939 kbps
Presentation Graphics Polish 16.583 kbps

FILES:

Name Time In Length Size Total Bitrate
---- ------- ------ ---- -------------
01207.M2TS 0:00:00.000 1:46:05.400 32,361,172,992 40,671

Lanz a lot
Любитель
  • Total Posts : 199
  • Scores: 27
  • Joined: 2009/01/12 16:20:16
  • Status: offline
Re: Импорт с русской локализацией (обсуждение), том IV 2019/10/14 18:36:01 (ссылка)
+6 (6)
Получил японское издание Marshall. На диске русский DD 5.1 и сабы.
bertuccio
Эксперт
  • Total Posts : 1857
  • Scores: 3253
  • Joined: 2012/04/13 22:05:26
  • Location: Paris
  • Status: offline
Re: Импорт с русской локализацией (обсуждение), том IV 2019/10/14 20:54:34 (ссылка)
Vaskopu
Зритель
  • Total Posts : 11
  • Scores: 5
  • Joined: 2018/11/20 09:34:15
  • Status: offline
Re: Импорт с русской локализацией (обсуждение), том IV 2019/10/16 04:24:45 (ссылка)
+1 (1)
Toy Story 4
 

PLAYLIST REPORT:

Name: 00800.MPLS
Length: 1:40:03.455 (h:m:s.ms)
Size: 27,563,157,504 bytes
Total Bitrate: 36.73 Mbps

VIDEO:

Codec Bitrate Description
----- ------- -----------
MPEG-4 AVC Video 23630 kbps 1080p / 23.976 fps / 16:9 / High Profile 4.1

AUDIO:

Codec Language Bitrate Description
----- -------- ------- -----------
DTS-HD Master Audio English 4160 kbps 7.1 / 48 kHz / 4160 kbps / 24-bit (DTS Core: 5.1 / 48 kHz / 1509 kbps / 24-bit / DN -4dB)
DTS-HD High-Res Audio English 2046 kbps 5.1 / 48 kHz / 2046 kbps / 24-bit (DTS Core: 5.1 / 48 kHz / 1509 kbps / 24-bit / DN -4dB)
Dolby Digital Audio English 320 kbps 2.0 / 48 kHz / 320 kbps / DN -27dB
Dolby Digital Plus Audio French 896 kbps 7.1 / 48 kHz / 896 kbps / DN -27dB (AC3 Embedded: 5.1 / 48 kHz / 512 kbps / DN -27dB)
Dolby Digital Audio Dutch 640 kbps 5.1 / 48 kHz / 640 kbps / DN -27dB
Dolby Digital Audio Russian 640 kbps 5.1 / 48 kHz / 640 kbps / DN -27dB
Dolby Digital Audio Dutch 640 kbps 5.1 / 48 kHz / 640 kbps / DN -27dB
Dolby Digital Audio Kazakh 640 kbps 5.1 / 48 kHz / 640 kbps / DN -27dB
Dolby Digital Audio English 320 kbps 2.0 / 48 kHz / 320 kbps / DN -27dB

SUBTITLES:

Codec Language Bitrate Description
----- -------- ------- -----------
Presentation Graphics English 51.400 kbps
Presentation Graphics French 28.675 kbps
Presentation Graphics Dutch 30.780 kbps
Presentation Graphics Russian 40.136 kbps
Presentation Graphics English 71.505 kbps
Presentation Graphics French 60.346 kbps
Presentation Graphics Dutch 49.408 kbps
Presentation Graphics Russian 66.224 kbps
Presentation Graphics Dutch 0.068 kbps
Presentation Graphics Russian 0.468 kbps
Presentation Graphics Kazakh 0.245 kbps

дедушка разведчик
Меценат
  • Total Posts : 730
  • Scores: 490
  • Joined: 2011/10/14 17:14:35
  • Location: москва
  • Status: offline
Re: Импорт с русской локализацией (обсуждение), том IV 2019/10/16 07:42:44 (ссылка)
+3 (3)
Не говори ни слова.
 
Италия. Русского языка нет. 
В теме помечено как есть. 
Нужно исправить. 
prjanick
Меценат
  • Total Posts : 7791
  • Scores: 15743
  • Joined: 2009/12/07 21:14:03
  • Location: СПб
  • Status: offline
Re: Импорт с русской локализацией (обсуждение), том IV 2019/10/16 10:24:29 (ссылка)
0
дедушка разведчик
Не говори ни слова.
 
Италия. Русского языка нет. 
В теме помечено как есть. 
Нужно исправить. 


Спасибо, исправил.
prjanick
Меценат
  • Total Posts : 7791
  • Scores: 15743
  • Joined: 2009/12/07 21:14:03
  • Location: СПб
  • Status: offline
Re: Импорт с русской локализацией (обсуждение), том IV 2019/10/16 12:02:01 (ссылка)
+1 (1)
Picture of Beauty - Канада, русские субтитры
https://www.blu-ray.com/m...Beauty-Blu-ray/248295/
Крик
Звёздный флот
  • Total Posts : 6227
  • Scores: 919
  • Joined: 2008/02/15 22:32:18
  • Location: г. Йошкар-Ола
  • Status: offline
Re: Импорт с русской локализацией (обсуждение), том IV 2019/10/16 15:13:24 (ссылка)
0
Вариант где-нибудь отхватить стилбук с русской локализацией на фильм "The Girl in the Spider's Web"?

ПРОДАЮ STEELBOOKS (С РУССКОЙ ЛОКАЛИЗАЦИЕЙ):
BondDM
Любитель
  • Total Posts : 360
  • Scores: 1907
  • Joined: 2016/11/03 15:22:56
  • Location: Украина
  • Status: offline
Re: Импорт с русской локализацией (обсуждение), том IV 2019/10/16 15:24:11 (ссылка)
+1 (1)
Я брал в Чехии с русским на 4K. Он и сейчас там есть.
Page: << < ..46474849 > Showing page 48 of 49
Jump to:
© 2019 APG vNext Commercial Version 5.5