Правила | Zavvi | Amazon.com Amazon.ca Amazon.co.uk Amazon.de Amazon.fr Amazon.it Amazon.es | OZON.ru

Helpful ReplyHot!Импорт с русской локализацией (обсуждение), том IV

Page: < 12345.. > >> Showing page 5 of 41
Author
barmaleyd
Ценитель
  • Total Posts : 627
  • Scores: 266
  • Joined: 2014/03/02 12:59:09
  • Status: offline
Re: Импорт с русской локализацией (обсуждение), том IV 2018/03/30 19:06:10 (ссылка)
+3 (3)
Вот такое интересное издание обнаружил
ANDREI TARKOVSKY/EDWARD ARTEMIEV - SOLARIS. SOUND AND VISION (LP - 180 GRAM VINYL + CD + HARD COVER PHOTO BOOK + BLU-RAY) - бокс включает в себя: фильм  в формате blu-ray, винил, CD и книгу). Тираж 500 экз.
 
https://www.fatbeats.com/products/andrey-tarkovsky-edward-artemiev-solaris-sound-and-vision-lp-180-gram-vinyl-cd-hard-cover-photo-book-bluray
 

#81
bertuccio
Эксперт
  • Total Posts : 1775
  • Scores: 2956
  • Joined: 2012/04/13 22:05:26
  • Location: Paris
  • Status: offline
Re: Импорт с русской локализацией (обсуждение), том IV 2018/04/03 10:03:23 (ссылка)
#82
BondDM
Любитель
  • Total Posts : 326
  • Scores: 1746
  • Joined: 2016/11/03 15:22:56
  • Location: Украина
  • Status: offline
Re: Импорт с русской локализацией (обсуждение), том IV 2018/04/03 21:07:45 (ссылка)
+2 (2)
Thor: Ragnarok 2D
 
Спойлер

DISC INFO:
Disc Title:     THOR_RAGNAROK
Disc Size:      41 953 874 815 bytes
Protection:     AACS
BD-Java:        Yes
BDInfo:         0.5.8
PLAYLIST REPORT:
Name:                   00800.MPLS
Length:                 2:10:30.697 (h:m:s.ms)
Size:                   32 028 082 176 bytes
Total Bitrate:          32,72 Mbps
VIDEO:
Codec                   Bitrate             Description    
-----                   -------             -----------    
MPEG-4 AVC Video        23995 kbps          1080p / 23,976 fps / 16:9 / High Profile 4.1
AUDIO:
Codec                           Language        Bitrate         Description    
-----                           --------        -------         -----------    
DTS-HD Master Audio             English         4891 kbps       7.1 / 48 kHz / 4891 kbps / 24-bit (DTS Core: 5.1 / 48 kHz / 1509 kbps / 24-bit / DN -4dB)
Dolby Digital Audio             English         320 kbps        2.0 / 48 kHz / 320 kbps / DN -4dB
Dolby Digital Audio             Russian         640 kbps        5.1 / 48 kHz / 640 kbps / DN -4dB
Dolby Digital Audio             Hindi           640 kbps        5.1 / 48 kHz / 640 kbps / DN -4dB
Dolby Digital Audio             English         192 kbps        2.0 / 48 kHz / 192 kbps / DN -4dB
SUBTITLES:
Codec                           Language        Bitrate         Description    
-----                           --------        -------         -----------    
Presentation Graphics           English         38,045 kbps                    
Presentation Graphics           Russian         28,981 kbps                    
Presentation Graphics           English         58,572 kbps                    
Presentation Graphics           Russian         56,411 kbps                    
Presentation Graphics           Russian         0,096 kbps                     
Presentation Graphics           Hindi           0,057 kbps                     
FILES:
Name            Time In         Length          Size            Total Bitrate  
----            -------         ------          ----            -------------  
00801.M2TS      0:00:00.000     2:10:30.697     32 028 082 176  32 721         
Спрятать

 
 
#83
BondDM
Любитель
  • Total Posts : 326
  • Scores: 1746
  • Joined: 2016/11/03 15:22:56
  • Location: Украина
  • Status: offline
Re: Импорт с русской локализацией (обсуждение), том IV 2018/04/03 22:43:58 (ссылка)
+3 (3)
Coco 3D
 

 
DISC INFO:
 
Disc Title:     COCO_3D
Disc Size:      40 224 584 848 bytes
Protection:     AACS
BD-Java:        Yes
Extras:         Blu-ray 3D
BDInfo:         0.5.8
 
PLAYLIST REPORT:
 
Name:                   00800.MPLS
Length:                 1:45:02.004 (h:m:s.ms)
Size:                   32 334 194 688 bytes
Total Bitrate:          41,05 Mbps
 
VIDEO:
 
Codec                   Bitrate             Description    
-----                   -------             -----------    
MPEG-4 AVC Video        21017 kbps          1080p / 23,976 fps / 16:9 / High Profile 4.1
MPEG-4 MVC Video        6531 kbps                          
 
AUDIO:
 
Codec                           Language        Bitrate         Description    
-----                           --------        -------         -----------    
DTS-HD Master Audio             English         4478 kbps       7.1 / 48 kHz / 4478 kbps / 24-bit (DTS Core: 5.1 / 48 kHz / 1509 kbps / 24-bit / DN -3dB)
DTS-HD High-Res Audio           English         2046 kbps       5.1 / 48 kHz / 2046 kbps / 24-bit (DTS Core: 5.1 / 48 kHz / 1509 kbps / 24-bit / DN -3dB)
Dolby Digital Audio             English         320 kbps        2.0 / 48 kHz / 320 kbps / DN -3dB
Dolby Digital Audio             Danish          640 kbps        5.1 / 48 kHz / 640 kbps / DN -4dB
Dolby Digital Audio             Finnish         640 kbps        5.1 / 48 kHz / 640 kbps / DN -4dB
Dolby Digital Audio             Norwegian       640 kbps        5.1 / 48 kHz / 640 kbps / DN -4dB
Dolby Digital Audio             Russian         640 kbps        5.1 / 48 kHz / 640 kbps / DN -4dB
Dolby Digital Audio             Swedish         640 kbps        5.1 / 48 kHz / 640 kbps / DN -4dB
 
SUBTITLES:
 
Codec                           Language        Bitrate         Description    
-----                           --------        -------         -----------    
Presentation Graphics           English         45,189 kbps                    
Presentation Graphics           Danish          33,859 kbps                    
Presentation Graphics           Finnish         34,272 kbps                    
Presentation Graphics           Norwegian       33,225 kbps                    
Presentation Graphics           Russian         32,236 kbps                    
Presentation Graphics           Swedish         34,304 kbps                    
Presentation Graphics           English         0,014 kbps                     
Presentation Graphics           Danish          0,237 kbps                     
Presentation Graphics           Finnish         0,266 kbps                     
Presentation Graphics           Norwegian       0,195 kbps                     
Presentation Graphics           Russian         0,289 kbps                     
Presentation Graphics           Swedish         0,258 kbps                     
 
FILES:
 
Name            Time In         Length          Size            Total Bitrate  
----            -------         ------          ----            -------------  
00810.SSIF      0:00:00.000     1:38:25.524     30 247 041 024  40 975         
00848.SSIF      1:38:25.524     0:06:36.479     2 087 153 664   42 114         
 

 
Coco Bonus Disc

DISC INFO:
Disc Title:     Coco Bonus Disc
Disc Size:      17 960 739 682 bytes
Protection:     AACS
BD-Java:        Yes
BDInfo:         0.5.8
PLAYLIST REPORT:
Name:                   00701.MPLS
Length:                 0:20:03.076 (h:m:s.ms)
Size:                   143 336 448 bytes
Total Bitrate:          0,95 Mbps
VIDEO:
Codec                   Bitrate             Description    
-----                   -------             -----------    
MPEG-4 AVC Video        18592 kbps          1080p / 23,976 fps / 16:9 / High Profile 4.1
AUDIO:
Codec                           Language        Bitrate         Description    
-----                           --------        -------         -----------    
Dolby Digital Audio             English         320 kbps        2.0 / 48 kHz / 320 kbps / DN -4dB
SUBTITLES:
Codec                           Language        Bitrate         Description    
-----                           --------        -------         -----------    
Presentation Graphics           English         32,151 kbps                    
Presentation Graphics           Spanish         27,561 kbps                    
Presentation Graphics           Danish          28,561 kbps                    
Presentation Graphics           Dutch           25,305 kbps                    
Presentation Graphics           Finnish         30,817 kbps                    
Presentation Graphics           French          28,786 kbps                    
Presentation Graphics           French          29,591 kbps                    
Presentation Graphics           German          38,643 kbps                    
Presentation Graphics           Italian         35,451 kbps                    
Presentation Graphics           Spanish         29,458 kbps                    
Presentation Graphics           Norwegian       28,060 kbps                    
Presentation Graphics           Russian         33,910 kbps                    
Presentation Graphics           Swedish         31,410 kbps                    
Presentation Graphics           English         29,403 kbps                    
Presentation Graphics           English         0,000 kbps                     

post edited by BondDM - 2018/04/03 22:55:33
#84
voovaz
Эксперт
  • Total Posts : 1193
  • Scores: 1483
  • Joined: 2015/09/15 11:14:25
  • Status: offline
Re: Импорт с русской локализацией (обсуждение), том IV 2018/04/03 23:42:03 (ссылка)
+2 (2)
Coco
DISC INFO:
Disc Title:
Disc Size: 38 588 359 862 bytes
Protection: AACS
BD-Java: Yes
BDInfo: 0.5.10
PLAYLIST REPORT:
Name: 00800.MPLS
Length: 1:45:02.003 (h:m:s.ms)
Size: 28 939 204 608 bytes
Total Bitrate: 36,74 Mbps
VIDEO:
Codec Bitrate Description
----- ------- -----------
MPEG-4 AVC Video 24055 kbps 1080p / 23,976 fps / 16:9 / High Profile 4.1
AUDIO:
Codec Language Bitrate Description
----- -------- ------- -----------
DTS-HD Master Audio English 4479 kbps 7.1 / 48 kHz / 4479 kbps / 24-bit (DTS Core: 5.1 / 48 kHz / 1509 kbps / 24-bit / DN -3dB)
DTS-HD High-Res Audio English 2046 kbps 5.1 / 48 kHz / 2046 kbps / 24-bit (DTS Core: 5.1 / 48 kHz / 1509 kbps / 24-bit / DN -3dB)
Dolby Digital Audio English 320 kbps 2.0 / 48 kHz / 320 kbps / DN -3dB
Dolby Digital Audio English 320 kbps 2.0 / 48 kHz / 320 kbps / DN -3dB
Dolby Digital Audio Arabic 640 kbps 5.1 / 48 kHz / 640 kbps / DN -4dB
Dolby Digital Audio Polish 640 kbps 5.1 / 48 kHz / 640 kbps / DN -4dB
Dolby Digital Audio Russian 640 kbps 5.1 / 48 kHz / 640 kbps / DN -4dB
Dolby Digital Audio Kazakh 640 kbps 5.1 / 48 kHz / 640 kbps / DN -4dB
Dolby Digital Audio English 320 kbps 2.0 / 48 kHz / 320 kbps / DN -4dB
SUBTITLES:
Codec Language Bitrate Description
----- -------- ------- -----------
Presentation Graphics English 45,007 kbps
Presentation Graphics Arabic 18,239 kbps
Presentation Graphics Polish 34,174 kbps
Presentation Graphics Russian 32,237 kbps
Presentation Graphics English 77,574 kbps
Presentation Graphics Russian 60,028 kbps
Presentation Graphics English 0,018 kbps
Presentation Graphics Arabic 0,141 kbps
Presentation Graphics Polish 0,262 kbps
Presentation Graphics Russian 0,292 kbps

#85
bertuccio
Эксперт
  • Total Posts : 1775
  • Scores: 2956
  • Joined: 2012/04/13 22:05:26
  • Location: Paris
  • Status: offline
Re: Импорт с русской локализацией (обсуждение), том IV 2018/04/10 10:23:48 (ссылка)
+1 (1)
Российский Черновик в Германии:
 
http://www.bluray-disc.de/blu-ray-filme/weltengaenger-blu-ray-disc
#86
voovaz
Эксперт
  • Total Posts : 1193
  • Scores: 1483
  • Joined: 2015/09/15 11:14:25
  • Status: offline
Re: Импорт с русской локализацией (обсуждение), том IV 2018/04/10 15:15:02 (ссылка)
+2 (2)
All Saints
Disc Title: All.Saints.2017.MULTI.COMPLETE.BLURAY-UNiVERSUM
Disc Size: 33,457,042,483 bytes
Protection: AACS
BD-Java: Yes
Playlist: 00001.MPLS
Size: 28,889,979,456 bytes
Length: 1:48:49.523
Total Bitrate: 35.40 Mbps
Video: MPEG-4 AVC Video / 24887 kbps / 1080p / 23.976 fps / 16:9 / High Profile 4.1
Audio: English / DTS-HD Master Audio / 5.1 / 48 kHz / 2161 kbps / 16-bit (DTS Core: 5.1 / 48 kHz / 1509 kbps / 16-bit)
Audio: English / Dolby Digital Audio / 5.1 / 48 kHz / 448 kbps
Audio: French / DTS-HD Master Audio / 5.1 / 48 kHz / 2164 kbps / 16-bit (DTS Core: 5.1 / 48 kHz / 1509 kbps / 16-bit)
Audio: German / DTS-HD Master Audio / 5.1 / 48 kHz / 2169 kbps / 16-bit (DTS Core: 5.1 / 48 kHz / 1509 kbps / 16-bit)
Audio: Russian / Dolby Digital Audio / 5.1 / 48 kHz / 640 kbps
Subtitle: English / 37.211 kbps
Subtitle: English / 41.506 kbps
Subtitle: Arabic / 21.211 kbps
Subtitle: Danish / 35.443 kbps
Subtitle: Dutch / 38.724 kbps
Subtitle: Estonian / 38.222 kbps
Subtitle: Finnish / 38.550 kbps
Subtitle: French / 39.910 kbps
Subtitle: German / 41.748 kbps
Subtitle: Latvian / 37.990 kbps
Subtitle: Lithuanian / 36.704 kbps
Subtitle: Norwegian / 35.609 kbps
Subtitle: Russian / 38.267 kbps
Subtitle: Swedish / 36.588 kbps
Subtitle: Turkish / 38.346 kbps

#87
bertuccio
Эксперт
  • Total Posts : 1775
  • Scores: 2956
  • Joined: 2012/04/13 22:05:26
  • Location: Paris
  • Status: offline
Re: Импорт с русской локализацией (обсуждение), том IV 2018/04/11 16:24:42 (ссылка)
+4 (4)
Black Panther 3D
 
https://www.ibs.it/black-panther-con-steelbook-blu-film-ryan-coogler/e/8717418527112?inventoryId=98947592
 
На 2D будут другие локализации
#88
voovaz
Эксперт
  • Total Posts : 1193
  • Scores: 1483
  • Joined: 2015/09/15 11:14:25
  • Status: offline
Re: Импорт с русской локализацией (обсуждение), том IV 2018/04/12 14:42:21 (ссылка)
+1 (1)
Downsizing
DISC INFO:

Disc Title: Downsizing
Disc Size: 47.619.265.284 bytes
Protection: AACS
BD-Java: Yes
BDInfo: 0.5.8

PLAYLIST REPORT:

Name: 00800.MPLS
Length: 2:15:20.403 (h:m:s.ms)
Size: 37.544.638.464 bytes
Total Bitrate: 36,99 Mbps

VIDEO:

Codec Bitrate Description
----- ------- -----------
MPEG-4 AVC Video 24990 kbps 1080p / 23,976 fps / 16:9 / High Profile 4.1

AUDIO:

Codec Language Bitrate Description
----- -------- ------- -----------
DTS-HD Master Audio English 4370 kbps 7.1 / 48 kHz / 4370 kbps / 24-bit (DTS Core: 5.1 / 48 kHz / 1509 kbps / 24-bit)
Dolby Digital Audio Czech 640 kbps 5.1 / 48 kHz / 640 kbps / DN -4dB
Dolby Digital Audio German 640 kbps 5.1 / 48 kHz / 640 kbps / DN -4dB
Dolby Digital Audio Spanish 640 kbps 5.1 / 48 kHz / 640 kbps / DN -4dB
Dolby Digital Audio French 640 kbps 5.1 / 48 kHz / 640 kbps / DN -4dB
Dolby Digital Audio Italian 640 kbps 5.1 / 48 kHz / 640 kbps / DN -4dB
Dolby Digital Audio Polish 640 kbps 5.1 / 48 kHz / 640 kbps / DN -4dB
Dolby Digital Audio Russian 640 kbps 5.1 / 48 kHz / 640 kbps / DN -4dB

SUBTITLES:

Codec Language Bitrate Description
----- -------- ------- -----------
Presentation Graphics Arabic 18,336 kbps
Presentation Graphics Malay 38,495 kbps
Presentation Graphics Chinese 23,230 kbps
Presentation Graphics Czech 31,617 kbps
Presentation Graphics Danish 30,525 kbps
Presentation Graphics German 37,072 kbps
Presentation Graphics Greek 36,431 kbps
Presentation Graphics English 34,344 kbps
Presentation Graphics Spanish 33,285 kbps
Presentation Graphics French 28,911 kbps
Presentation Graphics Hebrew 22,521 kbps
Presentation Graphics Hindi 30,273 kbps
Presentation Graphics Icelandic 34,291 kbps
Presentation Graphics Italian 33,635 kbps
Presentation Graphics Korean 19,727 kbps
Presentation Graphics Hungarian 33,495 kbps
Presentation Graphics Chinese 25,898 kbps
Presentation Graphics Dutch 28,980 kbps
Presentation Graphics Norwegian 29,819 kbps
Presentation Graphics Polish 28,835 kbps
Presentation Graphics Portuguese 35,283 kbps
Presentation Graphics Russian 33,054 kbps
Presentation Graphics Romanian 29,861 kbps
Presentation Graphics Chinese 29,910 kbps
Presentation Graphics Slovak 29,710 kbps
Presentation Graphics Finnish 33,586 kbps
Presentation Graphics Swedish 32,433 kbps
Presentation Graphics Thai 26,210 kbps
Presentation Graphics Turkish 34,375 kbps

FILES:

Name Time In Length Size Total Bitrate
---- ------- ------ ---- -------------
00800.M2TS 0:00:00.000 2:15:20.403 37.544.638.464 36.988

#89
prjanick
Меценат
  • Total Posts : 7727
  • Scores: 15526
  • Joined: 2009/12/07 21:14:03
  • Location: СПб
  • Status: offline
Re: Импорт с русской локализацией (обсуждение), том IV 2018/04/14 14:09:15 (ссылка)
+8 (8)
Insidious: The Last KeyZone ABCSound: Eng DTS HD MA 5.1, Rus DD 5.1; Subs: Eng, Rus
France | Spain | Scandinavia
 
Call Me by Your NameZone ABCSound: Eng DTS HD MA 5.1, Rus DD 5.1; Subs: Eng, Rus
Germany | Italy | Scandinavia
 
Greatest ShowmanZone ABCSound: Eng DTS HD MA 5.1, Rus DTS 5.1; Subs: Eng, Rus
Spain | Spain (Steelbook) | France (Steelbook)
 
Ghost Story, AZone ABCSound: Eng DTS HD MA 5.1, Rus DTS 5.1; Subs: Eng, Rus
Hungary | Poland | Czech | Slovakia | Thailand | Greece
 
Father FiguresZone ABCSound: Eng DTS HD MA 5.1, Rus DD 5.1; Subs: Eng, Rus
Poland | Hungary | Korea | Taiwan | Hong Kong | Greece
 
CocoZone ABCSound: Eng DTS HD MA 7.1, Rus DD 5.1; Subs: Eng, Rus
Poland (2D) | Scandinavia (3D)
 
15:17 to Paris, TheZone ABCSound: Eng DTS HD MA 5.1, Rus DD 5.1; Subs: Eng, Rus
Czech | Slovakia | Poland | Thailand | Hong Kong
 
Black Panther 3DZone ABCSound: Eng DTS HD MA 7.1, Rus DD 5.1; Subs: Eng, Rus
Italy | Spain | Czech | Slovakia | Poland
 
ЧерновикZone ?Sound: Rus DTS HD MA 5.1; Subs: Deu
Germany
#90
BondDM
Любитель
  • Total Posts : 326
  • Scores: 1746
  • Joined: 2016/11/03 15:22:56
  • Location: Украина
  • Status: offline
Re: Импорт с русской локализацией (обсуждение), том IV 2018/04/17 16:13:04 (ссылка)
0
Вот в этом чешском издании http://www.filmarena-eng.com/blu-ray-spider-man-origins-1-3-4k-ultra-hd-collection
Spider-man (1-я часть) на blu-ray с новым авторингом. По сравнению с предыдущим mastered in 4k изданием добавились несколько аудиодорожек и бонусные материалы (удаленные сцены, видеоклипы и т.д.). Правда, традиционно для Sony, бонусы без русского перевода. Битрейт видео стал меньше (видимо для того, чтобы уместить всё это на BD-50.
 

DISC INFO:
Disc Title:     SPIDER-MAN
Disc Size:      45 118 097 209 bytes
Protection:     AACS
BD-Java:        Yes
BDInfo:         0.7.1
PLAYLIST REPORT:
Name:                   00001.MPLS
Length:                 2:01:12.265 (h:m:s.ms)
Size:                   31 464 517 632 bytes
Total Bitrate:          34,61 Mbps
VIDEO:
Codec                   Bitrate             Description    
-----                   -------             -----------    
MPEG-4 AVC Video        26089 kbps          1080p / 23,976 fps / 16:9 / High Profile 4.1
AUDIO:
Codec                           Language        Bitrate         Description    
-----                           --------        -------         -----------    
DTS-HD Master Audio             English         2353 kbps       5.1 / 48 kHz / 2353 kbps / 16-bit (DTS Core: 5.1 / 48 kHz / 1509 kbps / 16-bit)
Dolby Digital Audio             English         192 kbps        2.0 / 48 kHz / 192 kbps
Dolby Digital Audio             Czech           640 kbps        5.1 / 48 kHz / 640 kbps
Dolby Digital Audio             Hungarian       640 kbps        5.1 / 48 kHz / 640 kbps
Dolby Digital Audio             Russian         640 kbps        5.1 / 48 kHz / 640 kbps
Dolby Digital Audio             Portuguese      640 kbps        5.1 / 48 kHz / 640 kbps
Dolby Digital Audio             Polish          192 kbps        2.0 / 48 kHz / 192 kbps
Dolby Digital Audio             English         192 kbps        2.0 / 48 kHz / 192 kbps / Dolby Surround
Dolby Digital Audio             English         192 kbps        2.0 / 48 kHz / 192 kbps / Dolby Surround
Dolby Digital Audio             English         192 kbps        2.0 / 48 kHz / 192 kbps / Dolby Surround
SUBTITLES:
Codec                           Language        Bitrate         Description    
-----                           --------        -------         -----------    
Presentation Graphics           Arabic          15,569 kbps                    
Presentation Graphics           English         27,181 kbps                    
Presentation Graphics           Bulgarian       24,456 kbps                    
Presentation Graphics           Croatian        21,813 kbps                    
Presentation Graphics           Czech           21,048 kbps                    
Presentation Graphics           Estonian        27,229 kbps                    
Presentation Graphics           Greek           27,002 kbps                    
Presentation Graphics           Hebrew          20,499 kbps                    
Presentation Graphics           Hindi           25,544 kbps                    
Presentation Graphics           Hungarian       23,025 kbps                    
Presentation Graphics           Lithuanian      25,507 kbps                    
Presentation Graphics           Polish          18,050 kbps                    
Presentation Graphics           Portuguese      25,340 kbps                    
Presentation Graphics           Romanian        25,709 kbps                    
Presentation Graphics           Russian         27,724 kbps                    
Presentation Graphics           Serbian         25,778 kbps                    
Presentation Graphics           Slovak          24,793 kbps                    
Presentation Graphics           Slovenian       22,431 kbps                    
Presentation Graphics           Turkish         25,753 kbps                    
Presentation Graphics           Icelandic       22,387 kbps                    
FILES:
Name            Time In         Length          Size            Total Bitrate  
----            -------         ------          ----            -------------  
00001.M2TS      0:00:00.000     2:01:12.265     31 464 517 632  34 613  

#91
prjanick
Меценат
  • Total Posts : 7727
  • Scores: 15526
  • Joined: 2009/12/07 21:14:03
  • Location: СПб
  • Status: offline
Re: Импорт с русской локализацией (обсуждение), том IV 2018/04/17 18:15:34 (ссылка)
0
Получается, это уже третье издание фильма по аналогии с первыми "Охотниками за привидениями" (Обычное издание - Mastered in 4K без бонусов - Mastered in 4K с бонусами).
#92
BondDM
Любитель
  • Total Posts : 326
  • Scores: 1746
  • Joined: 2016/11/03 15:22:56
  • Location: Украина
  • Status: offline
Re: Импорт с русской локализацией (обсуждение), том IV 2018/04/17 18:18:11 (ссылка)
0
Да. Еще то же самое было с "Таксистом" и "Ангелами и демонами".
#93
prjanick
Меценат
  • Total Posts : 7727
  • Scores: 15526
  • Joined: 2009/12/07 21:14:03
  • Location: СПб
  • Status: offline
Re: Импорт с русской локализацией (обсуждение), том IV 2018/04/17 18:25:20 (ссылка)
0
BondDM
Да. Еще то же самое было с "Таксистом" и "Ангелами и демонами".


Ну, с "Ангелами" пример не совсем корректный, т.к. на дисках представлены разные версии фильмов.
#94
bertuccio
Эксперт
  • Total Posts : 1775
  • Scores: 2956
  • Joined: 2012/04/13 22:05:26
  • Location: Paris
  • Status: offline
Re: Импорт с русской локализацией (обсуждение), том IV 2018/04/17 22:22:49 (ссылка)
+3 (3)
Российская документалка  Дорога Дмитрия Калашникова в США:
 
https://www.amazon.com/dp/B07CG1R3MB/
 
#95
TheHutt
Гуру
  • Total Posts : 4080
  • Scores: 1201
  • Joined: 2005/02/08 16:49:36
  • Status: offline
Re: Импорт с русской локализацией (обсуждение), том IV 2018/04/18 13:22:16 (ссылка)
0
BondDM
Да. Еще то же самое было с "Таксистом" и "Ангелами и демонами".


Только в случае с "Охотниками" и "Таксистом" было наоборот: сначала выпустили 4К-сканы с бонусами, а потом - "Mastered in 4K" без бонусов, но с битрейтом повыше. Наподобие старой ДВДшной серии "Superbit".
#96
bertuccio
Эксперт
  • Total Posts : 1775
  • Scores: 2956
  • Joined: 2012/04/13 22:05:26
  • Location: Paris
  • Status: offline
Re: Импорт с русской локализацией (обсуждение), том IV 2018/04/18 20:03:44 (ссылка)
+3 (3)
Обзор, вышедшего в Англии, Возвращения Звягинцева:
 
http://www.dvdbeaver.com/film2/DVDreviews26/the_return_blu-ray.htm
 
Получше, чем бельгийский диск
#97
prjanick
Меценат
  • Total Posts : 7727
  • Scores: 15526
  • Joined: 2009/12/07 21:14:03
  • Location: СПб
  • Status: offline
Re: Импорт с русской локализацией (обсуждение), том IV 2018/04/19 16:41:34 (ссылка)
+2 (2)
Документальный фильм "Дорога" в США: https://www.amazon.com/dp/B07CG1R3MB
#98
Крик
Звёздный флот
  • Total Posts : 6219
  • Scores: 915
  • Joined: 2008/02/15 22:32:18
  • Location: г. Йошкар-Ола
  • Status: offline
Re: Импорт с русской локализацией (обсуждение), том IV 2018/04/19 17:16:09 (ссылка)
0
Я так понял, что "Дорога" (2016) в первые выходит (на носителях/в цифре)? До этого показывали только на больших экранах в неизвестных местах?

ПРОДАЮ STEELBOOKS (С РУССКОЙ ЛОКАЛИЗАЦИЕЙ):
#99
prjanick
Меценат
  • Total Posts : 7727
  • Scores: 15526
  • Joined: 2009/12/07 21:14:03
  • Location: СПб
  • Status: offline
Re: Импорт с русской локализацией (обсуждение), том IV 2018/04/21 00:07:16 (ссылка)
+2 (2)
13 июня выходят диджибуки от Фокса в Испании: Чужой Завет и Скрытые фигуры (в серии будет еще Мисс Перегрин, но она без русского).
 
 
Page: < 12345.. > >> Showing page 5 of 41
Jump to:
© 2019 APG vNext Commercial Version 5.5