Правила | Zavvi | Amazon.com Amazon.ca Amazon.co.uk Amazon.de Amazon.fr Amazon.it Amazon.es | OZON.ru

Helpful ReplyHot!Импорт с русской локализацией (обсуждение), том IV

Page: << < ..678910.. > >> Showing page 6 of 18
Author
bertuccio
Эксперт
  • Total Posts : 1504
  • Scores: 2070
  • Joined: 2012/04/13 22:05:26
  • Location: Paris
  • Status: offline
Re: Импорт с русской локализацией (обсуждение), том IV 2018/04/22 11:43:33 (ссылка)
bertuccio
Эксперт
  • Total Posts : 1504
  • Scores: 2070
  • Joined: 2012/04/13 22:05:26
  • Location: Paris
  • Status: offline
Re: Импорт с русской локализацией (обсуждение), том IV 2018/04/22 11:54:17 (ссылка)
bertuccio
Эксперт
  • Total Posts : 1504
  • Scores: 2070
  • Joined: 2012/04/13 22:05:26
  • Location: Paris
  • Status: offline
Re: Импорт с русской локализацией (обсуждение), том IV 2018/04/24 12:32:28 (ссылка)
fmd1
Любитель
  • Total Posts : 73
  • Scores: 21
  • Joined: 2016/10/11 23:24:17
  • Status: offline
Re: Импорт с русской локализацией (обсуждение), том IV 2018/04/25 03:13:37 (ссылка)
0
bertuccio
Обзор, вышедшего в Англии, Возвращения Звягинцева:
 
http://www.dvdbeaver.com/film2/DVDreviews26/the_return_blu-ray.htm
 
Получше, чем бельгийский диск 


Замечательно! Одно плохо: zone B.
voovaz
Ценитель
  • Total Posts : 888
  • Scores: 884
  • Joined: 2015/09/15 11:14:25
  • Status: offline
Re: Импорт с русской локализацией (обсуждение), том IV 2018/04/25 07:25:07 (ссылка)
+2 (2)
The Greatest Showman

DISC INFO:

Disc Title: THE_GREATEST_SHOWMAN
Disc Size: 49,037,853,065 bytes
Protection: AACS
BD-Java: Yes
BDInfo: 0.5.8

PLAYLIST REPORT:

Name: 00081.MPLS
Length: 1:44:49.283 (h:m:s.ms)
Size: 30,315,890,688 bytes
Total Bitrate: 38.56 Mbps

(*) Indicates included stream hidden by this playlist.

VIDEO:

Codec Bitrate Description
----- ------- -----------
MPEG-4 AVC Video 23597 kbps 1080p / 23.976 fps / 16:9 / High Profile 4.1

AUDIO:

Codec Language Bitrate Description
----- -------- ------- -----------
DTS-HD Master Audio English 5244 kbps 7.1 / 48 kHz / 5244 kbps / 24-bit (DTS Core: 5.1-ES / 48 kHz / 1509 kbps / 24-bit)
* Dolby Digital Audio English 448 kbps 5.1 / 48 kHz / 448 kbps
DTS Audio French 768 kbps 5.1 / 48 kHz / 768 kbps / 24-bit
DTS Audio Spanish 768 kbps 5.1 / 48 kHz / 768 kbps / 24-bit
DTS Audio German 768 kbps 5.1 / 48 kHz / 768 kbps / 24-bit
DTS Audio Italian 768 kbps 5.1 / 48 kHz / 768 kbps / 24-bit
DTS Audio Russian 768 kbps 5.1 / 48 kHz / 768 kbps / 24-bit
Dolby Digital Audio Ukrainian 448 kbps 5.1 / 48 kHz / 448 kbps
* DTS Audio Japanese 768 kbps 5.1 / 48 kHz / 768 kbps / 24-bit
* Dolby Digital Audio English 224 kbps 2.0 / 48 kHz / 224 kbps
Dolby Digital Audio English 224 kbps 2.0 / 48 kHz / 224 kbps

SUBTITLES:

Codec Language Bitrate Description
----- -------- ------- -----------
* Presentation Graphics English 50.869 kbps
* Presentation Graphics French 32.695 kbps
* Presentation Graphics Spanish 37.659 kbps
* Presentation Graphics Danish 33.553 kbps
* Presentation Graphics Dutch 35.605 kbps
* Presentation Graphics Finnish 36.062 kbps
* Presentation Graphics German 40.881 kbps
* Presentation Graphics Italian 40.587 kbps
* Presentation Graphics Norwegian 38.891 kbps
* Presentation Graphics Russian 38.485 kbps
* Presentation Graphics Swedish 39.338 kbps
* Presentation Graphics Estonian 37.634 kbps
* Presentation Graphics Korean 24.074 kbps
* Presentation Graphics Latvian 36.609 kbps
* Presentation Graphics Lithuanian 39.382 kbps
* Presentation Graphics Japanese 22.444 kbps
* Presentation Graphics Japanese 9.659 kbps
* Presentation Graphics English 50.404 kbps
* Presentation Graphics French 47.196 kbps
* Presentation Graphics Spanish 47.924 kbps
* Presentation Graphics Danish 41.989 kbps
* Presentation Graphics Dutch 48.246 kbps
* Presentation Graphics Finnish 44.705 kbps
* Presentation Graphics German 50.600 kbps
* Presentation Graphics Italian 47.507 kbps
* Presentation Graphics Norwegian 46.149 kbps
* Presentation Graphics Russian 46.417 kbps
* Presentation Graphics Swedish 47.007 kbps
* Presentation Graphics Korean 30.742 kbps
* Presentation Graphics Ukrainian 40.449 kbps
* Presentation Graphics Japanese 29.115 kbps
Presentation Graphics English 164.955 kbps

voovaz
Ценитель
  • Total Posts : 888
  • Scores: 884
  • Joined: 2015/09/15 11:14:25
  • Status: offline
Re: Импорт с русской локализацией (обсуждение), том IV 2018/04/25 18:22:40 (ссылка)
+2 (2)
Insidious: The Last Key
DISC INFO:

Disc Title: INSIDIOUS_THE_LAST_KEY
Disc Size: 34.195.303.986 bytes
Protection: AACS
BD-Java: Yes
BDInfo: 0.5.8

PLAYLIST REPORT:

Name: 00001.MPLS
Length: 1:43:13.187 (h:m:s.ms)
Size: 3.496.317.120 bytes
Total Bitrate: 4,52 Mbps

VIDEO:

Codec Bitrate Description
----- ------- -----------
MPEG-4 AVC Video 25643 kbps 1080p / 23,976 fps / 16:9 / High Profile 4.1

AUDIO:

Codec Language Bitrate Description
----- -------- ------- -----------
DTS-HD Master Audio English 2138 kbps 5.1 / 48 kHz / 2138 kbps / 16-bit (DTS Core: 5.1 / 48 kHz / 1509 kbps / 16-bit)
Dolby Digital Audio English 640 kbps 5.1 / 48 kHz / 640 kbps
DTS-HD Master Audio French 2138 kbps 5.1 / 48 kHz / 2138 kbps / 16-bit (DTS Core: 5.1 / 48 kHz / 1509 kbps / 16-bit)
Dolby Digital Audio Russian 640 kbps 5.1 / 48 kHz / 640 kbps
DTS-HD Master Audio Spanish 2136 kbps 5.1 / 48 kHz / 2136 kbps / 16-bit (DTS Core: 5.1 / 48 kHz / 1509 kbps / 16-bit)

SUBTITLES:

Codec Language Bitrate Description
----- -------- ------- -----------
Presentation Graphics English 24,281 kbps
Presentation Graphics English 28,347 kbps
Presentation Graphics Arabic 12,651 kbps
Presentation Graphics Danish 20,537 kbps
Presentation Graphics Dutch 21,652 kbps
Presentation Graphics Estonian 22,137 kbps
Presentation Graphics Finnish 24,898 kbps
Presentation Graphics French 17,997 kbps
Presentation Graphics Latvian 21,399 kbps
Presentation Graphics Lithuanian 21,990 kbps
Presentation Graphics Norwegian 21,556 kbps
Presentation Graphics Russian 23,916 kbps
Presentation Graphics Spanish 21,677 kbps
Presentation Graphics Swedish 19,907 kbps
Presentation Graphics Ukrainian 22,643 kbps

FILES:

Name Time In Length Size Total Bitrate
---- ------- ------ ---- -------------
00001.M2TS 0:00:00.000 1:43:13.187 3.496.317.120 36.096

voovaz
Ценитель
  • Total Posts : 888
  • Scores: 884
  • Joined: 2015/09/15 11:14:25
  • Status: offline
Re: Импорт с русской локализацией (обсуждение), том IV 2018/04/25 20:25:12 (ссылка)
+1 (1)
Jumanji: Welcome to the Jungle
 
DISC INFO:

Disc Title:     Jumanji_Welcome to_the_Jungle
Disc Size:      40 823 182 009 bytes
Protection:     AACS
BD-Java:        Yes
BDInfo:         0.5.10

PLAYLIST REPORT:

Name:                   00001.MPLS
Length:                 1:59:03.136 (h:m:s.ms)
Size:                   32 998 699 008 bytes
Total Bitrate:          36,96 Mbps

VIDEO:

Codec                   Bitrate             Description     
-----                   -------             -----------     
MPEG-4 AVC Video        24882 kbps          1080p / 23,976 fps / 16:9 / High Profile 4.1

AUDIO:

Codec                           Language        Bitrate         Description     
-----                           --------        -------         -----------     
DTS-HD Master Audio             English         4044 kbps       5.1 / 48 kHz / 4044 kbps / 24-bit (DTS Core: 5.1 / 48 kHz / 1509 kbps / 24-bit)
DTS-HD Master Audio             French          2281 kbps       5.1 / 48 kHz / 2281 kbps / 16-bit (DTS Core: 5.1 / 48 kHz / 1509 kbps / 16-bit)
DTS-HD Master Audio             German          2272 kbps       5.1 / 48 kHz / 2272 kbps / 16-bit (DTS Core: 5.1 / 48 kHz / 1509 kbps / 16-bit)
Dolby Digital Audio             Russian         640 kbps        5.1 / 48 kHz / 640 kbps

SUBTITLES:

Codec                           Language        Bitrate         Description     
-----                           --------        -------         -----------     
Presentation Graphics           English         35,494 kbps                     
Presentation Graphics           Arabic          17,586 kbps                     
Presentation Graphics           Danish          29,590 kbps                     
Presentation Graphics           Dutch           28,078 kbps                     
Presentation Graphics           Estonian        29,750 kbps                     
Presentation Graphics           Finnish         29,481 kbps                     
Presentation Graphics           French          25,926 kbps                     
Presentation Graphics           German          35,464 kbps                     
Presentation Graphics           Latvian         29,759 kbps                     
Presentation Graphics           Lithuanian      32,047 kbps                     
Presentation Graphics           Norwegian       30,260 kbps                     
Presentation Graphics           Russian         34,512 kbps                     
Presentation Graphics           Swedish         28,728 kbps                     
Presentation Graphics           Turkish         33,729 kbps                     
Presentation Graphics           Ukrainian       28,201 kbps                     

FILES:

Name            Time In         Length          Size            Total Bitrate   
----            -------         ------          ----            -------------   
00001.M2TS      0:00:00.000     1:59:03.136     32 998 699 008  36 957  
     
voovaz
Ценитель
  • Total Posts : 888
  • Scores: 884
  • Joined: 2015/09/15 11:14:25
  • Status: offline
Re: Импорт с русской локализацией (обсуждение), том IV 2018/04/25 23:36:51 (ссылка)
+2 (2)
Father Figures
DISC INFO:

Disc Title:
Disc Size: 39 603 805 120 bytes
Protection: AACS
BD-Java: No
BDInfo: 0.7.1

PLAYLIST REPORT:

Name: 00100.MPLS
Length: 1:52:50.972 (h:m:s.ms)
Size: 35 399 135 232 bytes
Total Bitrate: 41,82 Mbps

VIDEO:

Codec Bitrate Description
----- ------- -----------
MPEG-4 AVC Video 32573 kbps 1080p / 23,976 fps / 16:9 / High Profile 4.1

AUDIO:

Codec Language Bitrate Description
----- -------- ------- -----------
DTS-HD Master Audio English 3472 kbps 5.1 / 48 kHz / 3472 kbps / 24-bit (DTS Core: 5.1 / 48 kHz / 1509 kbps / 24-bit)
Dolby Digital Audio English 640 kbps 5.1 / 48 kHz / 640 kbps / DN -4dB
Dolby Digital Audio Hungarian 640 kbps 5.1 / 48 kHz / 640 kbps / DN -4dB
Dolby Digital Audio Polish 640 kbps 5.1 / 48 kHz / 640 kbps / DN -4dB
Dolby Digital Audio Russian 640 kbps 5.1 / 48 kHz / 640 kbps / DN -4dB

SUBTITLES:

Codec Language Bitrate Description
----- -------- ------- -----------
Presentation Graphics English 52,110 kbps
Presentation Graphics Chinese 43,243 kbps
Presentation Graphics Chinese 42,240 kbps
Presentation Graphics Korean 36,606 kbps
Presentation Graphics Bulgarian 39,618 kbps
Presentation Graphics Croatian 44,480 kbps
Presentation Graphics Estonian 50,187 kbps
Presentation Graphics Greek 49,968 kbps
Presentation Graphics Hebrew 38,165 kbps
Presentation Graphics Hungarian 45,793 kbps
Presentation Graphics Icelandic 46,421 kbps
Presentation Graphics Latvian 41,997 kbps
Presentation Graphics Lithuanian 44,681 kbps
Presentation Graphics Polish 39,160 kbps
Presentation Graphics Portuguese 49,564 kbps
Presentation Graphics Romanian 41,567 kbps
Presentation Graphics Russian 47,539 kbps
Presentation Graphics Slovenian 42,395 kbps
Presentation Graphics Thai 46,013 kbps
Presentation Graphics Turkish 50,350 kbps
Presentation Graphics Hungarian 0,357 kbps
Presentation Graphics Russian 0,542 kbps

voovaz
Ценитель
  • Total Posts : 888
  • Scores: 884
  • Joined: 2015/09/15 11:14:25
  • Status: offline
Re: Импорт с русской локализацией (обсуждение), том IV 2018/04/26 02:00:24 (ссылка)
+3 (3)
Jumanji: Welcome to the Jungle 3D
Disc Title: 
Disc Size: 42,988,228,391 bytes
Protection: AACS
BD-Java: Yes
Playlist: 00001.MPLS
Size: 42,044,479,488 bytes
Length: 1:59:03.136
Total Bitrate: 47.09 Mbps

Video: MPEG-4 AVC Video / 24981 kbps / 1080p / 23.976 fps / 16:9 / High Profile 4.1
Video: MPEG-4 MVC Video / 10683 kbps /

 
 
 
Audio: English / DTS-HD Master Audio / 5.1 / 48 kHz / 2249 kbps / 16-bit (DTS Core: 5.1 / 48 kHz / 1509 kbps / 16-bit)
Audio: French / DTS-HD Master Audio / 5.1 / 48 kHz / 2281 kbps / 16-bit (DTS Core: 5.1 / 48 kHz / 1509 kbps / 16-bit)
Audio: German / DTS-HD Master Audio / 5.1 / 48 kHz / 2272 kbps / 16-bit (DTS Core: 5.1 / 48 kHz / 1509 kbps / 16-bit)
Audio: Russian / Dolby Digital Audio / 5.1 / 48 kHz / 640 kbps

Subtitle: English / 38.374 kbps
Subtitle: Arabic / 20.150 kbps
Subtitle: Danish / 32.042 kbps
Subtitle: Dutch / 30.347 kbps
Subtitle: Estonian / 32.824 kbps
Subtitle: Finnish / 31.750 kbps
Subtitle: French / 27.779 kbps
Subtitle: German / 37.964 kbps
Subtitle: Latvian / 31.585 kbps
Subtitle: Lithuanian / 35.195 kbps
Subtitle: Norwegian / 32.396 kbps
Subtitle: Russian / 37.276 kbps
Subtitle: Swedish / 30.928 kbps
Subtitle: Turkish / 36.284 kbps
Subtitle: Ukrainian / 30.584 kbps

 
Star Wars: Episode VIII - The Last Jedi
 
PLAYLIST REPORT:

Name: 00802.MPLS
Length: 2:31:51.602 (h:m:s.ms)
Size: 41 583 685 632 bytes
Total Bitrate: 36,51 Mbps

VIDEO:

Codec Bitrate Description
----- ------- -----------
MPEG-4 AVC Video 30891 kbps 1080p / 23,976 fps / 16:9 / High Profile 4.1

AUDIO:

Codec Language Bitrate Description
----- -------- ------- -----------
DTS-HD High-Res Audio English 2046 kbps 7.1 / 48 kHz / 2046 kbps / 24-bit (DTS Core: 5.1 / 48 kHz / 1509 kbps / 24-bit / DN -2dB)
Dolby Digital Audio Czech 640 kbps 5.1 / 48 kHz / 640 kbps / DN -3dB
Dolby Digital Audio Russian 640 kbps 5.1 / 48 kHz / 640 kbps / DN -3dB
Dolby Digital Audio English 192 kbps 2.0 / 48 kHz / 192 kbps / DN -4dB

SUBTITLES:

Codec Language Bitrate Description
----- -------- ------- -----------
Presentation Graphics English 29,301 kbps
Presentation Graphics Czech 19,993 kbps
Presentation Graphics Russian 23,306 kbps
Presentation Graphics English 67,056 kbps
Presentation Graphics Russian 59,786 kbps

post edited by voovaz - 2018/04/26 02:18:45
voovaz
Ценитель
  • Total Posts : 888
  • Scores: 884
  • Joined: 2015/09/15 11:14:25
  • Status: offline
Re: Импорт с русской локализацией (обсуждение), том IV 2018/04/26 03:17:15 (ссылка)
+3 (3)
Star Wars: Episode VIII - The Last Jedi 3D
DISC INFO:

Disc Title:
Disc Size: 48 102 884 872 bytes
Protection: AACS
BD-Java: Yes
Extras: Blu-ray 3D
BDInfo: 0.7.1

PLAYLIST REPORT:

Name: 00802.MPLS
Length: 2:31:51.644 (h:m:s.ms)
Size: 45 966 243 840 bytes
Total Bitrate: 40,36 Mbps

VIDEO:

Codec Bitrate Description
----- ------- -----------
MPEG-4 AVC Video 23240 kbps Left Eye / 1080p / 23,976 fps / 16:9 / High Profile 4.1
MPEG-4 MVC Video 8444 kbps Right Eye

AUDIO:

Codec Language Bitrate Description
----- -------- ------- -----------
DTS-HD Master Audio English 4629 kbps 7.1 / 48 kHz / 4629 kbps / 24-bit (DTS Core: 5.1 / 48 kHz / 1509 kbps / 24-bit / DN -2dB)
Dolby Digital Audio Czech 640 kbps 5.1 / 48 kHz / 640 kbps / DN -3dB
Dolby Digital Audio Russian 640 kbps 5.1 / 48 kHz / 640 kbps / DN -3dB

SUBTITLES:

Codec Language Bitrate Description
----- -------- ------- -----------
Presentation Graphics English 29,301 kbps
Presentation Graphics Czech 19,993 kbps
Presentation Graphics Russian 23,306 kbps

Гоша Твин
Любитель
  • Total Posts : 160
  • Scores: 79
  • Joined: 2017/09/21 13:33:23
  • Status: offline
Re: Импорт с русской локализацией (обсуждение), том IV 2018/04/26 08:38:55 (ссылка)
+1 (3)
"Нелюбовь" шагает по планете. 12 июня выходит от Sony Pictures в Америке:
https://www.amazon.com/dp/B079PDLDPD
Shaun
Moderator
  • Total Posts : 6249
  • Scores: 11305
  • Joined: 2009/07/18 20:52:02
  • Location: город-герой Москва
  • Status: offline
Re: Импорт с русской локализацией (обсуждение), том IV 2018/04/26 08:55:41 (ссылка)
+4 (4)
Star Wars: Episode VIII - The Last Jedi (Бонусный диск)
 
PLAYLIST REPORT:
 

Name:                   00710.MPLS
Length:                 1:35:23.134 (h:m:s.ms)
Size:                   18 959 720 448 bytes
Total Bitrate:          26,50 Mbps

VIDEO:

Codec                   Bitrate             Description     
-----                   -------             -----------     
MPEG-4 AVC Video        23989 kbps          1080p / 23,976 fps / 16:9 / High Profile 4.1

AUDIO:

Codec                           Language        Bitrate         Description     
-----                           --------        -------         -----------     
Dolby Digital Audio             English         640 kbps        5.1 / 48 kHz / 640 kbps / DN -4dB

SUBTITLES:

Codec                           Language        Bitrate         Description     
-----                           --------        -------         -----------     
Presentation Graphics           English         57,293 kbps                     
Presentation Graphics           Czech           43,864 kbps                     
Presentation Graphics           Dutch           34,703 kbps                     
Presentation Graphics           French          47,161 kbps                     
Presentation Graphics           German          51,396 kbps                     
Presentation Graphics           Hungarian       48,207 kbps                     
Presentation Graphics           Italian         49,761 kbps                     
Presentation Graphics           Polish          39,267 kbps                     
Presentation Graphics           Portuguese      47,636 kbps                     
Presentation Graphics           Russian         50,039 kbps                     
Presentation Graphics           Spanish         46,152 kbps                     
Presentation Graphics           Greek           52,966 kbps                     
Presentation Graphics           Romanian        46,855 kbps
 
 
 


                     Продажа BluRay и DVD
barmaleyd
Любитель
  • Total Posts : 492
  • Scores: 232
  • Joined: 2014/03/02 12:59:09
  • Status: offline
Re: Импорт с русской локализацией (обсуждение), том IV 2018/04/26 16:56:37 (ссылка)
+5 (5)
В восточной европе переиздают каталожные позиции, в том числе с русским языком (давно уже OOP) : S.W.A.T. Спецназ города Ангелов, Готика, 6-й день, Анаконда, Хитч, Девушка с татуировкой дракона (Финчер), Единственный, Клик: С пультом по жизни, День сурка.  
Так что думаю, в ближайшее время у Венгров и Чехов должно появиться.
voovaz
Ценитель
  • Total Posts : 888
  • Scores: 884
  • Joined: 2015/09/15 11:14:25
  • Status: offline
Re: Импорт с русской локализацией (обсуждение), том IV 2018/04/28 21:51:18 (ссылка)
+2 (2)
Maze Runner: The Death Cure
Disc Title: 
Disc Size: 47,491,408,549 bytes
Protection: AACS
BD-Java: Yes
BDInfo: 0.7.1

PLAYLIST REPORT:

Name: 00301.MPLS
Length: 2:23:52.624 (h:m:s.ms)
Size: 36,274,944,000 bytes
Total Bitrate: 33.62 Mbps

VIDEO:

Codec Bitrate Description
----- ------- -----------
MPEG-4 AVC Video 20961 kbps 1080p / 23.976 fps / 16:9 / High Profile 4.1

AUDIO:

Codec Language Bitrate Description
----- -------- ------- -----------
DTS-HD Master Audio English 5120 kbps 7.1 / 48 kHz / 5120 kbps / 24-bit (DTS Core: 5.1 / 48 kHz / 1509 kbps / 24-bit)
Dolby Digital Audio Spanish 448 kbps 5.1 / 48 kHz / 448 kbps
DTS Audio Spanish 768 kbps 5.1 / 48 kHz / 768 kbps / 24-bit
Dolby Digital Audio Portuguese 448 kbps 5.1 / 48 kHz / 448 kbps
DTS Audio Russian 768 kbps 5.1 / 48 kHz / 768 kbps / 24-bit
Dolby Digital Audio Hindi 448 kbps 5.1 / 48 kHz / 448 kbps
Dolby Digital Audio Ukrainian 448 kbps 5.1 / 48 kHz / 448 kbps
DTS Audio Japanese 1509 kbps 5.1 / 48 kHz / 1509 kbps / 24-bit
Dolby Digital Audio English 224 kbps 2.0 / 48 kHz / 224 kbps

SUBTITLES:

Codec Language Bitrate Description
----- -------- ------- -----------
Presentation Graphics Japanese 11.962 kbps
Presentation Graphics Japanese 0.048 kbps
Presentation Graphics English 21.414 kbps
Presentation Graphics Spanish 19.155 kbps
Presentation Graphics Spanish 21.773 kbps
Presentation Graphics Portuguese 20.426 kbps
Presentation Graphics Russian 20.867 kbps
Presentation Graphics Estonian 22.505 kbps
Presentation Graphics Hindi 16.066 kbps
Presentation Graphics Latvian 19.825 kbps
Presentation Graphics Lithuanian 18.058 kbps
Presentation Graphics Ukrainian 18.339 kbps
Presentation Graphics Spanish 76.821 kbps
Presentation Graphics Russian 82.579 kbps
Presentation Graphics Japanese 39.967 kbps

 
Pitch Perfect 3
DISC INFO:

Disc Title:
Disc Size: 47 322 714 742 bytes
Protection: AACS
BD-Java: Yes
BDInfo: 0.5.8

PLAYLIST REPORT:

Name: 00800.MPLS
Length: 1:33:02.785 (h:m:s.ms)
Size: 25 774 559 232 bytes
Total Bitrate: 36,93 Mbps

VIDEO:

Codec Bitrate Description
----- ------- -----------
MPEG-4 AVC Video 25997 kbps 1080p / 23,976 fps / 16:9 / High Profile 4.1

AUDIO:

Codec Language Bitrate Description
----- -------- ------- -----------
DTS-HD Master Audio English 5351 kbps 7.1 / 48 kHz / 5351 kbps / 24-bit (DTS Core: 5.1 / 48 kHz / 1509 kbps / 24-bit)
DTS Audio Russian 768 kbps 5.1 / 48 kHz / 768 kbps / 24-bit
DTS Audio Hungarian 768 kbps 5.1 / 48 kHz / 768 kbps / 24-bit
DTS Audio Polish 768 kbps 5.1 / 48 kHz / 768 kbps / 24-bit
Dolby Digital Audio English 192 kbps 2.0 / 48 kHz / 192 kbps / DN -7dB / Dolby Surround
Dolby Digital Audio English 192 kbps 2.0 / 48 kHz / 192 kbps / DN -4dB / Dolby Surround

SUBTITLES:

Codec Language Bitrate Description
----- -------- ------- -----------
Presentation Graphics English 62,709 kbps
Presentation Graphics Russian 42,506 kbps
Presentation Graphics Czech 38,434 kbps
Presentation Graphics Hungarian 49,325 kbps
Presentation Graphics Polish 40,982 kbps
Presentation Graphics Greek 53,879 kbps
Presentation Graphics Bulgarian 46,608 kbps
Presentation Graphics Croatian 40,686 kbps
Presentation Graphics Estonian 41,276 kbps
Presentation Graphics Latvian 39,197 kbps
Presentation Graphics Lithuanian 50,222 kbps
Presentation Graphics Romanian 46,792 kbps
Presentation Graphics Slovenian 38,217 kbps
Presentation Graphics English 73,462 kbps
Presentation Graphics English 57,062 kbps
Presentation Graphics Russian 9,666 kbps
Presentation Graphics Hungarian 10,872 kbps
Presentation Graphics Polish 0,032 kbps

Anatoly-
Меценат
  • Total Posts : 3006
  • Scores: 944
  • Joined: 2004/07/07 21:50:26
  • Location: Н.Уренгой
  • Status: offline
Re: Импорт с русской локализацией (обсуждение), том IV 2018/04/29 10:55:52 (ссылка)
+3 (3)
Rough Night в Англии с русским.
bertuccio
Эксперт
  • Total Posts : 1504
  • Scores: 2070
  • Joined: 2012/04/13 22:05:26
  • Location: Paris
  • Status: offline
Re: Импорт с русской локализацией (обсуждение), том IV 2018/04/30 15:39:17 (ссылка)
+3 (3)
Fifty Shades Freed                    
 
https://www.dvd-premiery.cz/padesat-odstinu-svobody-blu-ray-prodlouzena-verze/
voovaz
Ценитель
  • Total Posts : 888
  • Scores: 884
  • Joined: 2015/09/15 11:14:25
  • Status: offline
Re: Импорт с русской локализацией (обсуждение), том IV 2018/05/02 21:44:29 (ссылка)
+2 (2)
Tadeo Jones 2: El secreto del Rey Midas
 
DISC INFO:

Disc Title:
Disc Size: 29 929 842 553 bytes
Protection: AACS
BD-Java: Yes
BDInfo: 0.5.10

PLAYLIST REPORT:

Name: 00001.MPLS
Length: 1:24:58.927 (h:m:s.ms)
Size: 29 078 138 880 bytes
Total Bitrate: 45,62 Mbps

VIDEO:

Codec Bitrate Description
----- ------- -----------
MPEG-4 AVC Video 29755 kbps 1080p / 23,976 fps / 16:9 / High Profile 4.1

AUDIO:

Codec Language Bitrate Description
----- -------- ------- -----------
Dolby TrueHD Audio English 4112 kbps 5.1 / 48 kHz / 4112 kbps / 24-bit (AC3 Embedded: )
Dolby Digital Audio English 640 kbps 5.1 / 48 kHz / 640 kbps / DN -4dB
Dolby Digital Audio Dutch 640 kbps 5.1 / 48 kHz / 640 kbps / DN -4dB
Dolby Digital Audio French 640 kbps 5.1 / 48 kHz / 640 kbps / DN -4dB
Dolby Digital Audio German 640 kbps 5.1 / 48 kHz / 640 kbps / DN -4dB
Dolby Digital Audio Italian 640 kbps 5.1 / 48 kHz / 640 kbps / DN -4dB
Dolby Digital Audio Japanese 640 kbps 5.1 / 48 kHz / 640 kbps / DN -4dB
Dolby Digital Audio Polish 640 kbps 5.1 / 48 kHz / 640 kbps / DN -4dB
Dolby Digital Audio Portuguese 640 kbps 5.1 / 48 kHz / 640 kbps / DN -4dB
Dolby Digital Audio Portuguese 640 kbps 5.1 / 48 kHz / 640 kbps / DN -4dB
Dolby Digital Audio Russian 640 kbps 5.1 / 48 kHz / 640 kbps / DN -4dB
Dolby Digital Audio Spanish 640 kbps 5.1 / 48 kHz / 640 kbps / DN -4dB
Dolby Digital Audio Turkish 224 kbps 2.0 / 48 kHz / 224 kbps / DN -4dB

SUBTITLES:

Codec Language Bitrate Description
----- -------- ------- -----------
Presentation Graphics English 29,427 kbps
Presentation Graphics English 36,982 kbps
Presentation Graphics Arabic 15,637 kbps
Presentation Graphics Malay 33,521 kbps
Presentation Graphics Chinese 22,708 kbps
Presentation Graphics Czech 27,958 kbps
Presentation Graphics Danish 28,801 kbps
Presentation Graphics Dutch 29,248 kbps
Presentation Graphics Finnish 28,014 kbps
Presentation Graphics French 29,443 kbps
Presentation Graphics Greek 32,614 kbps
Presentation Graphics German 29,897 kbps
Presentation Graphics Hebrew 20,703 kbps
Presentation Graphics Hindi 24,824 kbps
Presentation Graphics Hungarian 31,165 kbps
Presentation Graphics Italian 28,449 kbps
Presentation Graphics Japanese 21,424 kbps
Presentation Graphics Korean 20,772 kbps
Presentation Graphics Chinese 27,194 kbps
Presentation Graphics Norwegian 28,984 kbps
Presentation Graphics Polish 27,316 kbps
Presentation Graphics Portuguese 30,113 kbps
Presentation Graphics Portuguese 31,241 kbps
Presentation Graphics Romanian 29,361 kbps
Presentation Graphics Russian 28,571 kbps
Presentation Graphics Spanish 29,083 kbps
Presentation Graphics Slovak 28,561 kbps
Presentation Graphics Swedish 24,575 kbps
Presentation Graphics Thai 25,925 kbps
Presentation Graphics Turkish 29,760 kbps
Presentation Graphics Japanese 0,251 kbps

FILES:

Name Time In Length Size Total Bitrate
---- ------- ------ ---- -------------
00486.M2TS 0:00:00.000 1:24:58.927 29 078 138 880 45 622

bertuccio
Эксперт
  • Total Posts : 1504
  • Scores: 2070
  • Joined: 2012/04/13 22:05:26
  • Location: Paris
  • Status: offline
Re: Импорт с русской локализацией (обсуждение), том IV 2018/05/02 22:00:13 (ссылка)
+4 (4)
Получен из Японии бокс с фильмами Сергея Параджанова.
 
https://www.amazon.co.jp/dp/B079HWWQ6G/ 
 
Русская дорожка присутствует только на фильме Легенда о Сурамской крепости. Плюс оригинальная дорожка.
 
На остальных фильмах дорожки оригинальные:
украинская - на Тенях забытых предков, армянская на Цвете граната и грузино-азербайджанская - на Ашик Керибе.
 
Все диски с HD ремастером.
Цвет граната в версии фонда Скорсезе, уже изданной в Англии и США.
Впечатляющая реставрация Теней забытых предков.
Чуть похуже - но все же хороша - реставрация Легенды о Сурамской крепости: на мой вкус, перебор с зерном в светлых сценах.
Ашик Кериб - средне, недостает четкости, перебор черного.
 
Дополнительные материалы - на DVD:
советская версия Цвета граната (картинка гораздо лучше, чем на DVD, изданном в России) плюс две документалки - Воспоминания о Саят Нова и Эрос и Танатос.
Все допы на русском.
 
Все диски мультизонные.
 
Японские субтитры отключаемые.
 
post edited by bertuccio - 2018/05/02 22:09:18
bertuccio
Эксперт
  • Total Posts : 1504
  • Scores: 2070
  • Joined: 2012/04/13 22:05:26
  • Location: Paris
  • Status: offline
Re: Импорт с русской локализацией (обсуждение), том IV 2018/05/08 09:44:09 (ссылка) ☄ Helpfulby viktorFilms 2018/05/08 11:31:01
+3 (3)
Game Night
 
Звук: Английский Русский Польский Чешский Венгерский
Субтитры:  Английский Китайский Португальский Русский Арабский Польский Чешский Венгерский Корейский
 
Информация с корейского http://www.movie4989.com/ Раздел предзаказов
bertuccio
Эксперт
  • Total Posts : 1504
  • Scores: 2070
  • Joined: 2012/04/13 22:05:26
  • Location: Paris
  • Status: offline
Re: Импорт с русской локализацией (обсуждение), том IV 2018/05/09 20:21:41 (ссылка)
Page: << < ..678910.. > >> Showing page 6 of 18
Jump to:
© 2018 APG vNext Commercial Version 5.5