Правила | Zavvi | Amazon.com Amazon.ca Amazon.co.uk Amazon.de Amazon.fr Amazon.it Amazon.es | OZON.ru

Hot!На пятьдесят оттенков темнее / Fifty Shades Darker (2017, Universal / ND Play)

Author
prjanick
Меценат
  • Total Posts : 5642
  • Scores: 9898
  • Joined: 2009/12/07 21:14:03
  • Location: СПб
  • Status: offline
2017/05/23 15:22:17 (ссылка)
5 (3)

На пятьдесят оттенков темнее / Fifty Shades Darker (2017, Universal / ND Play)


Специальное издание включает в себя театральную и расширенную версию фильма на Blu-ray и дополнительный DVD с бонусами.

Дистрибьютор: ND Play / Universal
 
Формат изображения: 1080p / MPEG-4 AVC, 2.40:1
 
Звуковые дорожки:
- Русский Дубляж DTS 5.1
- Английский DTS-X MA 7.1
- Чешский DTS 5.1
- Польский DTS 5.1
- Венгерский DTS 5.1
 
Субтитры:
русские, английские, болгарские, чешские, словацкие, польские, венгерские, латвийские, литовские, эстонские, румынские, хорватские
 
Дополнительные материалы на Blu-ray (русские субтитры):
-Тизер фильма "Пятьдесят оттенков свободы"
-Удаленные эпизоды
-Писать темнее
-Темная режиссура
-Темная семья
-Новые угрозы
-Маскарад
-Знакомство с темной стороной
 
Дополнительные материалы на DVD (русские субтитры):
-Костюмы для героев (05:28, субтитры, SD)
-Открытие галереи (02:35, субтитры, SD)
-Салон "Эсклава" (02:55, субтитры, SD)
-Что скрывают маски (03:22, субтитры, SD)
-На волосок от трагедии (04:20, субтитры, SD)
-Празднование (05:51, субтитры, SD)
-Музыка к фильму (05:31, субтитры, SD)
 
BDInfo

 
Disc Size:      46,410,181,543 bytes
Protection:     AACS
BD-Java:        Yes
BDInfo:         0.5.8.1

PLAYLIST REPORT:

Name:                   00801.MPLS  
Length:                 2:11:28.880 (h:m:s.ms)
Size:                   34,975,070,208 bytes
Total Bitrate:          35.47 Mbps

VIDEO:

Codec                   Bitrate             Description     
-----                   -------             -----------     
MPEG-4 AVC Video        24993 kbps          1080p / 23.976 fps / 16:9 / High Profile 4.1 / 

AUDIO:

Codec                           Language        Bitrate         Description     
-----                           --------        -------         -----------     
DTS:X/DTS-HD Master Audio       English         5495 kbps       7.1-X / 48 kHz / 5495 kbps / 24-bit (DTS Core: 5.1 / 48 kHz / 1509 kbps / 24-bit)
DTS Audio                       English         256 kbps        2.0 / 48 kHz / 256 kbps / 24-bit
DTS Audio                       Russian         768 kbps        5.1 / 48 kHz / 768 kbps / 24-bit
DTS Audio                       Czech           768 kbps        5.1 / 48 kHz / 768 kbps / 24-bit
DTS Audio                       Hungarian       768 kbps        5.1 / 48 kHz / 768 kbps / 24-bit
DTS Audio                       Polish          768 kbps        5.1 / 48 kHz / 768 kbps / 24-bit

SUBTITLES:

Codec                           Language        Bitrate         Description     
-----                           --------        -------         -----------     
Presentation Graphics           English         25.729 kbps                     
Presentation Graphics           Russian         13.89 kbps                      
Presentation Graphics           Czech           13.311 kbps                     
Presentation Graphics           Hungarian       12.512 kbps                     
Presentation Graphics           Polish          14.304 kbps                     
Presentation Graphics           Bulgarian       12.711 kbps                     
Presentation Graphics           Croatian        15.379 kbps                     
Presentation Graphics           Estonian        13.79 kbps                      
Presentation Graphics           Latvian         14.064 kbps                     
Presentation Graphics           Lithuanian      14.862 kbps                     
Presentation Graphics           Romanian        13.466 kbps                     
Presentation Graphics           Slovenian       9.418 kbps                      
Presentation Graphics           Russian         15.226 kbps                     
Presentation Graphics           Czech           86.323 kbps                     
Presentation Graphics           Hungarian       93.204 kbps                     
Presentation Graphics           Polish          86.798 kbps                     

FILES:

Name            Time In         Length          Size            Total Bitrate   
----            -------         ------          ----            -------------   
00400.M2TS      0:00:00.000     0:02:28.398     667,748,352     35,997 kbps     
00425.M2TS      0:02:28.398     0:02:25.603     655,294,464     36,004 kbps     
00401.M2TS      0:04:54.002     0:03:49.479     1,026,938,880   35,800 kbps     
00426.M2TS      0:08:43.481     0:01:22.665     370,403,328     35,845 kbps     
00402.M2TS      0:10:06.147     0:04:36.693     1,233,850,368   35,674 kbps     
00427.M2TS      0:14:42.840     0:00:46.129     207,544,320     35,993 kbps     
00403.M2TS      0:15:28.969     0:11:20.304     3,023,290,368   35,552 kbps     
00428.M2TS      0:26:49.274     0:00:43.001     192,227,328     35,762 kbps     
00404.M2TS      0:27:32.275     0:34:16.054     9,188,640,768   35,752 kbps     
00429.M2TS      1:01:48.329     0:03:01.848     860,528,640     37,856 kbps     
00406.M2TS      1:04:50.177     0:09:12.677     2,425,159,680   35,104 kbps     
00430.M2TS      1:14:02.855     0:01:08.276     293,898,240     34,436 kbps     
00407.M2TS      1:15:11.131     0:03:13.276     842,121,216     34,856 kbps     
00431.M2TS      1:18:24.407     0:05:44.052     1,487,351,808   34,584 kbps     
00408.M2TS      1:24:08.459     0:16:48.632     4,409,475,072   34,973 kbps     
00432.M2TS      1:40:57.092     0:02:15.260     624,734,208     36,950 kbps     
00409.M2TS      1:43:12.352     0:04:01.324     1,063,723,008   35,262 kbps     
00433.M2TS      1:47:13.677     0:02:04.124     541,489,152     34,899 kbps     
00410.M2TS      1:49:17.801     0:01:24.876     368,621,568     34,744 kbps     
00434.M2TS      1:50:42.677     0:05:32.081     1,539,035,136   37,076 kbps     
00411.M2TS      1:56:14.759     0:01:23.041     366,680,064     35,325 kbps     
00435.M2TS      1:57:37.800     0:00:44.085     191,606,784     34,769 kbps     
00412.M2TS      1:58:21.886     0:07:09.846     1,915,551,744   35,650 kbps     
00436.M2TS      2:05:31.732     0:05:57.148     1,479,155,712   33,132 kbps

PLAYLIST REPORT:

Name:                   00800.MPLS  
Length:                 1:57:48.269 (h:m:s.ms)
Size:                   31,319,298,048 bytes
Total Bitrate:          35.45 Mbps

VIDEO:

Codec                   Bitrate             Description     
-----                   -------             -----------     
MPEG-4 AVC Video        24993 kbps          1080p / 23.976 fps / 16:9 / High Profile 4.1 / 

AUDIO:

Codec                           Language        Bitrate         Description     
-----                           --------        -------         -----------     
DTS:X/DTS-HD Master Audio       English         5495 kbps       7.1-X / 48 kHz / 5495 kbps / 24-bit (DTS Core: 5.1 / 48 kHz / 1509 kbps / 24-bit)
DTS Audio                       English         256 kbps        2.0 / 48 kHz / 256 kbps / 24-bit
DTS Audio                       Russian         768 kbps        5.1 / 48 kHz / 768 kbps / 24-bit
DTS Audio                       Czech           768 kbps        5.1 / 48 kHz / 768 kbps / 24-bit
DTS Audio                       Hungarian       768 kbps        5.1 / 48 kHz / 768 kbps / 24-bit
DTS Audio                       Polish          768 kbps        5.1 / 48 kHz / 768 kbps / 24-bit

SUBTITLES:

Codec                           Language        Bitrate         Description     
-----                           --------        -------         -----------     
Presentation Graphics           English         25.729 kbps                     
Presentation Graphics           Russian         13.89 kbps                      
Presentation Graphics           Czech           13.311 kbps                     
Presentation Graphics           Hungarian       12.512 kbps                     
Presentation Graphics           Polish          14.304 kbps                     
Presentation Graphics           Bulgarian       12.711 kbps                     
Presentation Graphics           Croatian        15.379 kbps                     
Presentation Graphics           Estonian        13.79 kbps                      
Presentation Graphics           Latvian         14.064 kbps                     
Presentation Graphics           Lithuanian      14.862 kbps                     
Presentation Graphics           Romanian        13.466 kbps                     
Presentation Graphics           Slovenian       9.418 kbps                      
Presentation Graphics           Russian         15.226 kbps                     
Presentation Graphics           Czech           86.323 kbps                     
Presentation Graphics           Hungarian       93.204 kbps                     
Presentation Graphics           Polish          86.798 kbps                     

FILES:

Name            Time In         Length          Size            Total Bitrate   
----            -------         ------          ----            -------------   
00400.M2TS      0:00:00.000     0:02:28.398     667,748,352     35,997 kbps     
00413.M2TS      0:02:28.398     0:01:52.362     507,058,176     36,101 kbps     
00401.M2TS      0:04:20.760     0:03:49.479     1,026,938,880   35,800 kbps     
00414.M2TS      0:08:10.239     0:00:10.719     48,408,576      36,129 kbps     
00402.M2TS      0:08:20.958     0:04:36.693     1,233,850,368   35,674 kbps     
00415.M2TS      0:12:57.651     0:00:21.855     98,230,272      35,956 kbps     
00403.M2TS      0:13:19.506     0:11:20.304     3,023,290,368   35,552 kbps     
00416.M2TS      0:24:39.811     0:00:24.149     107,194,368     35,510 kbps     
00404.M2TS      0:25:03.960     0:34:16.054     9,188,640,768   35,752 kbps     
00417.M2TS      0:59:20.014     0:02:50.503     798,996,480     37,488 kbps     
00406.M2TS      1:02:10.518     0:09:12.677     2,425,159,680   35,104 kbps     
00418.M2TS      1:11:23.195     0:00:19.894     86,913,024      34,948 kbps     
00407.M2TS      1:11:43.090     0:03:13.276     842,121,216     34,856 kbps     
00419.M2TS      1:14:56.366     0:00:25.358     112,287,744     35,423 kbps     
00408.M2TS      1:15:21.725     0:16:48.632     4,409,475,072   34,973 kbps     
00420.M2TS      1:32:10.358     0:01:00.935     282,021,888     37,025 kbps     
00409.M2TS      1:33:11.293     0:04:01.324     1,063,723,008   35,262 kbps     
00421.M2TS      1:37:12.618     0:00:56.890     247,179,264     34,758 kbps     
00410.M2TS      1:38:09.508     0:01:24.876     368,621,568     34,744 kbps     
00422.M2TS      1:39:34.384     0:03:23.745     954,716,160     37,486 kbps     
00411.M2TS      1:42:58.130     0:01:23.041     366,680,064     35,325 kbps     
00423.M2TS      1:44:21.171     0:00:20.311     88,522,752      34,865 kbps     
00412.M2TS      1:44:41.483     0:07:09.846     1,915,551,744   35,650 kbps     
00424.M2TS      1:51:51.329     0:05:56.939     1,455,968,256   32,632 kbps
Спрятать

 


Купить: OZON | GoldDisk | BlurayMania | 1c-интерес | М-Видео
post edited by prjanick - 2017/06/03 17:29:44
#1

3 Ответов Related Threads

    Shaun
    Moderator
    • Total Posts : 4077
    • Scores: 5883
    • Joined: 2009/07/18 20:52:02
    • Location: город-герой Москва
    • Status: offline
    Re: На пятьдесят оттенков темнее / Fifty Shades Darker (2017, Universal / ND Play) 2017/05/23 19:00:47 (ссылка)
    0
    Предзаказ на ozon
     
    В продаже с 29 мая.

                            Продажа BD и DVD
    #2
    voovaz
    Любитель
    • Total Posts : 355
    • Scores: 243
    • Joined: 2015/09/15 11:14:25
    • Status: offline
    Re: На пятьдесят оттенков темнее / Fifty Shades Darker (2017, Universal / ND Play) 2017/05/24 16:21:56 (ссылка)
    0
    #3
    zhuzhick
    Ценитель
    • Total Posts : 631
    • Scores: 777
    • Joined: 2006/08/06 09:17:50
    • Location: Санкт-Петербург
    • Status: offline
    Re: На пятьдесят оттенков темнее / Fifty Shades Darker (2017, Universal / ND Play) 2017/06/03 17:24:16 (ссылка)
    +4 (4)
    Диск №2 (DVD):
    Костюмы для героев (05:28, субтитры, SD)
    Открытие галереи (02:35, субтитры, SD)
    Салон "Эсклава" (02:55, субтитры, SD)
    Что скрывают маски (03:22, субтитры, SD)
    На волосок от трагедии (04:20, субтитры, SD)
    Празднование (05:51, субтитры, SD)
    Музыка к фильму (05:31, субтитры, SD)
    #4
    Jump to:
    © 2017 APG vNext Commercial Version 5.5