Правила | Zavvi | Amazon.com Amazon.ca Amazon.co.uk Amazon.de Amazon.fr Amazon.it Amazon.es | OZON.ru

Helpful ReplyHot!Релизы Новый Диск

Page: < 12345.. > >> Showing page 4 of 115
Author
Denvilyesman
Любитель
  • Total Posts : 166
  • Scores: 0
  • Joined: 2010/09/15 16:33:26
  • Status: offline
RE: Релизы Новый Диск 2010/12/06 20:46:04 (ссылка)
0
Ой, я их с Союзом спутал, но и те и другие, не лучшие компании. :)
#61
Блинк
TBBT и South Park - лучшие сериалы!
  • Total Posts : 6498
  • Scores: 126
  • Joined: 2004/09/04 21:27:34
  • Location: Минск
  • Status: offline
RE: Релизы Новый Диск 2010/12/16 23:55:55 (ссылка)
0


звук: Русский Дубляж DTS-HD Master audio
региональный код: А, B, С
изображение: 1080p High Definition 16:9
цвет: PAL
упаковка: Keep case
дистрибьютор: Новый Диск
слои: BD-25 (1 слой)
#62
hdmaniac
Меценат
  • Total Posts : 10728
  • Scores: 9306
  • Joined: 2008/01/26 18:49:41
  • Location: Москва
  • Status: offline
RE: Релизы Новый Диск 2010/12/17 00:02:07 (ссылка)
0
Из всех этих релизов для меня интересен только Из Парижа с любовью , хотя понятно , что издание будет
скудно на бонусы и языки , хоть -бы видео не пострадало ...

BLU-RAY -1309, 4K ULTRA HD - 104
4K UHD PANASONIC 824GK(B), 4K UDP OPPO 203(A),
OPPO BDP-93(ABC), LG BP325(C), PS 4 (500 Гб "A")
TV SONY 75 XF9005
projector EPSON 4K EH-TW9300, Elite Screens SKT100UHW-E12"
10 лет на Форуме и 10000 постов)
#63
Dima Netu
Любитель
  • Total Posts : 900
  • Scores: 11
  • Joined: 2007/05/11 08:54:49
  • Location: Москва
  • Status: offline
RE: Релизы Новый Диск 2010/12/18 11:57:22 (ссылка)
0
Из Парижа с любовью
Видео очень похоже на оригинал, даже количество чаптеров совпадает. Вот БД инфо диска



DISC INFO:

Disc Title: FROM_PARIS_WITH_LOVE
Disc Size: 27 317 676 334 bytes
Protection: AACS
BD-Java: No
BDInfo: 0.5.6

PLAYLIST REPORT:

Name: 00003.MPLS
Length: 1:32:39 (h:m:s)
Size: 24 995 887 104 bytes
Total Bitrate: 35,97 Mbps

VIDEO:

Codec Bitrate Description
----- ------- -----------
MPEG-4 AVC Video 31924 kbps 1080p / 23,976 fps / 16:9 / High Profile 4.1

AUDIO:

Codec Language Bitrate Description
----- -------- ------- -----------
DTS-HD Master Audio Russian 2247 kbps 5.1 / 48 kHz / 2247 kbps / 16-bit (DTS Core: 5.1 / 48 kHz / 1509 kbps / 16-bit)

FILES:

Name Time In Length Size Total Bitrate
---- ------- ------ ---- -------------
00006.M2TS 0:00:00.000 1:32:39.428 24 995 887 104 35 969

CHAPTERS:

Number Time In Length Avg Video Rate Max 1-Sec Rate Max 1-Sec Time Max 5-Sec Rate Max 5-Sec Time Max 10Sec Rate Max 10Sec Time Avg Frame Size Max Frame Size Max Frame Time
------ ------- ------ -------------- -------------- -------------- -------------- -------------- -------------- -------------- -------------- -------------- --------------
1 0:00:00.000 0:06:47.865 30 835 kbps 39 016 kbps 00:00:55.972 34 125 kbps 00:00:51.968 33 204 kbps 00:00:46.963 160 743 bytes 407 447 bytes 00:00:56.389
2 0:06:47.865 0:03:29.626 32 634 kbps 34 035 kbps 00:10:16.490 33 028 kbps 00:08:23.794 32 915 kbps 00:07:54.974 170 136 bytes 322 599 bytes 00:10:17.491
3 0:10:17.491 0:07:03.840 32 657 kbps 34 966 kbps 00:13:43.489 33 134 kbps 00:12:36.589 32 952 kbps 00:11:37.738 170 259 bytes 368 508 bytes 00:11:54.839
4 0:17:21.331 0:02:58.386 32 674 kbps 35 649 kbps 00:20:05.245 33 071 kbps 00:19:11.441 32 977 kbps 00:19:06.353 170 349 bytes 282 888 bytes 00:20:06.872
5 0:20:19.718 0:04:26.391 32 596 kbps 35 111 kbps 00:21:28.954 33 121 kbps 00:24:39.519 32 930 kbps 00:24:34.431 169 942 bytes 313 356 bytes 00:21:23.615
6 0:24:46.109 0:04:56.170 32 664 kbps 34 563 kbps 00:26:58.241 33 054 kbps 00:25:52.425 32 941 kbps 00:25:47.420 170 293 bytes 325 952 bytes 00:27:17.844
7 0:29:42.280 0:07:57.059 32 559 kbps 35 118 kbps 00:35:03.810 33 131 kbps 00:34:59.764 32 962 kbps 00:32:30.281 169 750 bytes 338 216 bytes 00:31:54.913
8 0:37:39.340 0:06:46.155 32 550 kbps 34 584 kbps 00:37:53.896 33 088 kbps 00:40:18.916 32 958 kbps 00:37:51.644 169 699 bytes 335 696 bytes 00:38:06.701
9 0:44:25.496 0:05:12.020 32 551 kbps 36 052 kbps 00:45:08.747 33 291 kbps 00:49:18.705 32 974 kbps 00:49:13.700 169 704 bytes 375 838 bytes 00:45:13.419
10 0:49:37.516 0:03:37.258 32 367 kbps 35 169 kbps 00:51:47.437 33 168 kbps 00:52:53.628 33 004 kbps 00:52:48.623 168 746 bytes 311 620 bytes 00:51:48.980
11 0:53:14.774 0:04:59.257 32 392 kbps 36 210 kbps 00:56:46.820 33 396 kbps 00:56:42.732 32 983 kbps 00:57:14.514 168 880 bytes 386 834 bytes 00:56:59.457
12 0:58:14.032 0:07:22.608 32 724 kbps 34 515 kbps 01:05:30.718 33 101 kbps 01:03:54.664 32 926 kbps 01:01:24.263 170 608 bytes 318 467 bytes 01:00:26.122
13 1:05:36.641 0:07:05.633 32 637 kbps 34 504 kbps 01:09:06.433 33 100 kbps 01:06:50.047 32 983 kbps 01:09:51.687 170 153 bytes 347 190 bytes 01:06:53.134
14 1:12:42.274 0:05:56.856 32 299 kbps 37 105 kbps 01:13:47.923 33 432 kbps 01:17:05.579 33 094 kbps 01:17:00.490 168 391 bytes 339 631 bytes 01:17:37.277
15 1:18:39.131 0:07:03.881 32 617 kbps 36 332 kbps 01:25:35.380 34 085 kbps 01:25:32.335 33 411 kbps 01:25:27.372 170 049 bytes 335 522 bytes 01:25:42.929
16 1:25:43.012 0:06:56.416 25 634 kbps 34 771 kbps 01:31:43.289 33 356 kbps 01:31:42.246 32 942 kbps 01:27:05.762 133 658 bytes 630 096 bytes 01:31:46.876

STREAM DIAGNOSTICS:

File PID Type Codec Language Seconds Bitrate Bytes Packets
---- --- ---- ----- -------- -------------- -------------- ------------- -----
00006.M2TS 4113 (0x1011) 0x1B AVC 5559,262 31 925 22 185 175 288 120 649 812
00006.M2TS 4352 (0x1100) 0x86 DTS-HD MA rus (Russian) 5559,262 2 247 1 561 406 768 9 350 841



Вот американец

DISC INFO:

Disc Title: FROMPARISWITHLOVE
Disc Size: 44,829,718,294 bytes
Protection: AACS
BD-Java: Yes
BDInfo: 0.5.4

PLAYLIST REPORT:

Name: 00604.MPLS
Length: 1:32:39 (h:m:s)
Size: 30,729,910,272 bytes
Total Bitrate: 44.22 Mbps

(*) Indicates included stream hidden by this playlist.

VIDEO:

Codec Bitrate Description
----- ------- -----------
MPEG-4 AVC Video 31924 kbps 1080p / 23.976 fps / 16:9 / High Profile 4.1
* MPEG-4 AVC Video 3999 kbps 480p / 23.976 fps / 16:9 / High Profile 3.2

AUDIO:

Codec Language Bitrate Description
----- -------- ------- -----------
DTS-HD Master Audio English 5105 kbps 7.1 / 48 kHz / 5105 kbps / 24-bit (DTS Core: 5.1 / 48 kHz / 1509 kbps / 24-bit)
Dolby Digital Audio French 640 kbps 5.1 / 48 kHz / 640 kbps / DN -4dB
Dolby Digital Audio English 224 kbps 2.0 / 48 kHz / 224 kbps / DN -4dB / Dolby Surround

SUBTITLES:

Codec Language Bitrate Description
----- -------- ------- -----------
Presentation Graphics English 34.012 kbps
Presentation Graphics English 38.159 kbps
Presentation Graphics Spanish 32.827 kbps

FILES:

Name Time In Length Size Total Bitrate
---- ------- ------ ---- -------------
00391.M2TS 0:00:00.000 1:32:39.428 30,729,910,272 44,220

CHAPTERS:

Number Time In Length Avg Video Rate Max 1-Sec Rate Max 1-Sec Time Max 5-Sec Rate Max 5-Sec Time Max 10Sec Rate Max 10Sec Time Avg Frame Size Max Frame Size Max Frame Time
------ ------- ------ -------------- -------------- -------------- -------------- -------------- -------------- -------------- -------------- -------------- --------------
1 0:00:00.000 0:06:41.484 30,807 kbps 39,016 kbps 00:00:55.972 34,125 kbps 00:00:51.968 33,204 kbps 00:00:46.963 160,598 bytes 407,447 bytes 00:00:56.389
2 0:06:41.484 0:03:36.007 32,632 kbps 34,035 kbps 00:10:16.490 33,028 kbps 00:08:23.794 32,915 kbps 00:07:54.974 170,127 bytes 398,073 bytes 00:06:43.486
3 0:10:17.491 0:07:03.840 32,657 kbps 34,966 kbps 00:13:43.489 33,134 kbps 00:12:36.589 32,952 kbps 00:11:37.738 170,259 bytes 368,508 bytes 00:11:54.839
4 0:17:21.331 0:02:57.343 32,674 kbps 35,649 kbps 00:20:05.245 33,071 kbps 00:19:11.441 32,977 kbps 00:19:06.353 170,350 bytes 282,888 bytes 00:20:06.872
5 0:20:18.675 0:04:29.143 32,598 kbps 35,111 kbps 00:21:28.954 33,121 kbps 00:24:39.519 32,930 kbps 00:24:34.431 169,953 bytes 313,356 bytes 00:21:23.615
6 0:24:47.819 0:04:55.795 32,663 kbps 34,563 kbps 00:26:58.241 33,054 kbps 00:25:52.425 32,941 kbps 00:25:47.420 170,292 bytes 325,952 bytes 00:27:17.844
7 0:29:43.615 0:07:55.725 32,558 kbps 35,118 kbps 00:35:03.810 33,131 kbps 00:34:59.764 32,962 kbps 00:32:30.281 169,745 bytes 338,216 bytes 00:31:54.913
8 0:37:39.340 0:06:44.112 32,549 kbps 34,584 kbps 00:37:53.896 33,088 kbps 00:40:18.916 32,958 kbps 00:37:51.644 169,693 bytes 335,696 bytes 00:38:06.701
9 0:44:23.452 0:05:14.063 32,552 kbps 36,052 kbps 00:45:08.747 33,291 kbps 00:49:18.705 32,974 kbps 00:49:13.700 169,712 bytes 375,838 bytes 00:45:13.419
10 0:49:37.516 0:03:34.714 32,364 kbps 35,169 kbps 00:51:47.437 33,168 kbps 00:52:53.628 33,004 kbps 00:52:48.623 168,733 bytes 311,620 bytes 00:51:48.980
11 0:53:12.230 0:04:59.716 32,393 kbps 36,210 kbps 00:56:46.820 33,396 kbps 00:56:42.732 32,983 kbps 00:57:14.514 168,880 bytes 386,834 bytes 00:56:59.457
12 0:58:11.946 0:07:21.482 32,726 kbps 34,515 kbps 01:05:30.718 33,101 kbps 01:03:54.664 32,926 kbps 01:01:24.263 170,621 bytes 318,467 bytes 01:00:26.122
13 1:05:33.429 0:07:05.341 32,633 kbps 34,593 kbps 01:05:36.015 33,100 kbps 01:06:50.047 32,983 kbps 01:09:51.687 170,135 bytes 347,190 bytes 01:06:53.134
14 1:12:38.771 0:05:56.272 32,299 kbps 37,105 kbps 01:13:47.923 33,432 kbps 01:17:05.579 33,094 kbps 01:17:00.490 168,392 bytes 339,631 bytes 01:17:37.277
15 1:18:35.043 0:07:03.881 32,655 kbps 36,332 kbps 01:25:35.380 34,085 kbps 01:25:32.335 33,411 kbps 01:25:27.372 170,246 bytes 335,323 bytes 01:21:12.617
16 1:25:38.925 0:07:00.503 25,665 kbps 34,771 kbps 01:31:43.289 33,356 kbps 01:31:42.246 32,942 kbps 01:27:05.762 133,816 bytes 630,096 bytes 01:31:46.876

STREAM DIAGNOSTICS:

File PID Type Codec Language Seconds Bitrate Bytes Packets
---- --- ---- ----- -------- -------------- -------------- ------------- -----
00391.M2TS 4113 (0x1011) 0x1B AVC 5559.262 31,925 22,185,175,288 120,649,812
00391.M2TS 4352 (0x1100) 0x86 DTS-HD MA eng (English) 5559.262 5,105 3,547,292,564 20,144,777
00391.M2TS 4353 (0x1101) 0x81 AC3 fra (French) 5559.262 640 444,756,480 2,605,995
00391.M2TS 4354 (0x1102) 0x81 AC3 eng (English) 5559.262 224 155,664,768 868,665
00391.M2TS 4608 (0x1200) 0x90 PGS eng (English) 5559.262 34 23,635,736 134,706
00391.M2TS 4609 (0x1201) 0x90 PGS eng (English) 5559.262 38 26,517,618 151,335
00391.M2TS 4610 (0x1202) 0x90 PGS spa (Spanish) 5559.262 33 22,812,292 130,397
00391.M2TS 6912 (0x1B00) 0x1B AVC


Как видно, звук на нашем издании "ужали" в два раза, хотя места на диске осталось достаточно.

Из всех искусств для нас важнейшим является кино. Ленин В.И.
#64
Dima Netu
Любитель
  • Total Posts : 900
  • Scores: 11
  • Joined: 2007/05/11 08:54:49
  • Location: Москва
  • Status: offline
RE: Релизы Новый Диск 2010/12/18 22:38:04 (ссылка)
0
Возмездие
Наш диск, как и американец http://bluray.highdefdigest.com/3187/edgeofdarkness.html записан на 25Гб. Видео оригинальное, даже по битрейту совпадает, только количество чаптеров отличается. Дубляж немного уступает по битрейту оригиналу, но тоже не плох (На "Неудержимых" от этого издателя он был "убит"). Дубляж сделан Студией Синитека, если правильно понял, что за студия? Поиском не нашёл, зато увидел, что на трекерах в начале года, когда появился фильм, писали, что дубляж убогий, мне так не показалось, или на этом диске он другой.
БД инфо:
Наш диск


DISC INFO:

Disc Title: EDGE_OF_DARKNESS
Disc Size: 20 200 305 743 bytes
Protection: AACS
BD-Java: No
BDInfo: 0.5.6

PLAYLIST REPORT:

Name: 00003.MPLS
Length: 1:56:52 (h:m:s)
Size: 17 983 027 200 bytes
Total Bitrate: 20,52 Mbps

VIDEO:

Codec Bitrate Description
----- ------- -----------
VC-1 Video 17213 kbps 1080p / 23,976 fps / 16:9 / Advanced Profile 3

AUDIO:

Codec Language Bitrate Description
----- -------- ------- -----------
DTS-HD Master Audio Russian 2152 kbps 5.1 / 48 kHz / 2152 kbps / 16-bit (DTS Core: 5.1 / 48 kHz / 1509 kbps / 16-bit)

FILES:

Name Time In Length Size Total Bitrate
---- ------- ------ ---- -------------
00007.M2TS 0:00:00.000 1:56:52.046 17 983 027 200 20 517

CHAPTERS:

Number Time In Length Avg Video Rate Max 1-Sec Rate Max 1-Sec Time Max 5-Sec Rate Max 5-Sec Time Max 10Sec Rate Max 10Sec Time Avg Frame Size Max Frame Size Max Frame Time
------ ------- ------ -------------- -------------- -------------- -------------- -------------- -------------- -------------- -------------- -------------- --------------
1 0:00:00.000 0:08:33.554 18 856 kbps 42 834 kbps 00:02:06.084 34 322 kbps 00:02:04.999 30 520 kbps 00:02:04.999 99 167 bytes 404 331 bytes 00:02:09.045
2 0:08:33.554 0:06:01.778 16 912 kbps 27 744 kbps 00:13:58.462 25 381 kbps 00:13:55.960 23 674 kbps 00:13:55.960 88 235 bytes 240 891 bytes 00:08:35.515
3 0:14:35.332 0:08:16.787 19 046 kbps 34 985 kbps 00:19:51.607 33 745 kbps 00:19:51.565 26 594 kbps 00:19:51.565 99 296 bytes 428 632 bytes 00:19:54.610
4 0:22:52.120 0:07:27.155 17 235 kbps 25 193 kbps 00:26:36.094 22 197 kbps 00:26:35.760 21 006 kbps 00:26:32.090 89 854 bytes 276 611 bytes 00:25:25.190
5 0:30:19.275 0:07:27.947 16 777 kbps 24 933 kbps 00:30:25.532 23 096 kbps 00:30:23.571 20 680 kbps 00:30:19.275 87 466 bytes 332 396 bytes 00:30:28.451
6 0:37:47.223 0:05:26.576 17 599 kbps 24 473 kbps 00:42:21.747 23 572 kbps 00:38:57.918 22 959 kbps 00:41:42.583 91 753 bytes 324 617 bytes 00:41:42.666
7 0:43:13.799 0:07:18.146 17 296 kbps 23 403 kbps 00:43:32.192 22 567 kbps 00:43:28.230 21 025 kbps 00:49:21.667 90 173 bytes 221 279 bytes 00:45:14.545
8 0:50:31.945 0:06:04.739 18 276 kbps 26 225 kbps 00:56:33.890 25 077 kbps 00:56:31.137 24 196 kbps 00:56:26.674 95 280 bytes 212 575 bytes 00:51:07.397
9 0:56:36.684 0:04:44.534 18 447 kbps 29 628 kbps 00:57:58.808 28 152 kbps 00:57:56.139 26 494 kbps 00:57:50.884 96 173 bytes 259 881 bytes 00:59:10.505
10 1:01:21.219 0:07:08.261 17 950 kbps 28 370 kbps 01:01:52.542 25 374 kbps 01:06:38.494 24 570 kbps 01:06:38.452 93 586 bytes 343 696 bytes 01:01:35.733
11 1:08:29.480 0:07:40.001 19 970 kbps 39 343 kbps 01:13:02.419 35 414 kbps 01:13:02.378 30 923 kbps 01:12:57.039 104 115 bytes 418 522 bytes 01:08:44.745
12 1:16:09.481 0:07:24.152 18 540 kbps 37 260 kbps 01:20:08.303 30 789 kbps 01:20:05.717 29 536 kbps 01:20:01.129 96 658 bytes 427 306 bytes 01:20:10.096
13 1:23:33.633 0:07:13.766 18 666 kbps 25 398 kbps 01:27:47.303 24 313 kbps 01:28:14.497 22 924 kbps 01:28:13.579 97 316 bytes 335 569 bytes 01:23:41.266
14 1:30:47.400 0:08:33.095 16 605 kbps 24 689 kbps 01:37:52.700 22 069 kbps 01:37:52.449 21 430 kbps 01:38:48.047 86 572 bytes 336 474 bytes 01:39:20.454
15 1:39:20.496 0:07:23.985 19 325 kbps 27 353 kbps 01:41:15.360 25 777 kbps 01:41:14.777 24 687 kbps 01:41:09.855 100 752 bytes 347 356 bytes 01:39:47.189
16 1:46:44.481 0:10:07.565 7 677 kbps 28 071 kbps 01:47:41.955 24 618 kbps 01:47:38.034 21 795 kbps 01:47:39.035 40 827 bytes 241 588 bytes 01:54:00.834

STREAM DIAGNOSTICS:

File PID Type Codec Language Seconds Bitrate Bytes Packets
---- --- ---- ----- -------- -------------- -------------- ------------- -----
00007.M2TS 4113 (0x1011) 0xEA VC-1 7011,963 17 213 15 086 881 884 82 095 430
00007.M2TS 4352 (0x1100) 0x86 DTS-HD MA rus (Russian) 7011,963 2 152 1 886 340 192 11 331 233



Американец


DISC INFO:

Disc Title: EDGE_OF_DARKNESS
Disc Size: 20,620,560,205 bytes
Protection: AACS
BD-Java: No
BDInfo: 0.5.4

PLAYLIST REPORT:

Name: 00100.MPLS
Length: 1:56:52 (h:m:s)
Size: 19,921,926,144 bytes
Total Bitrate: 22.73 Mbps

VIDEO:

Codec Bitrate Description
----- ------- -----------
VC-1 Video 17213 kbps 1080p / 23.976 fps / 16:9 / Advanced Profile 3

AUDIO:

Codec Language Bitrate Description
----- -------- ------- -----------
DTS-HD Master Audio English 3520 kbps 5.1 / 48 kHz / 3520 kbps / 24-bit (DTS Core: 5.1 / 48 kHz / 1509 kbps / 24-bit)
Dolby Digital Audio Spanish 640 kbps 5.1 / 48 kHz / 640 kbps / DN -4dB

SUBTITLES:

Codec Language Bitrate Description
----- -------- ------- -----------
Presentation Graphics English 28.626 kbps
Presentation Graphics Spanish 27.143 kbps

FILES:

Name Time In Length Size Total Bitrate
---- ------- ------ ---- -------------
00001.M2TS 0:00:00.000 1:56:52.046 19,921,926,144 22,729

CHAPTERS:

Number Time In Length Avg Video Rate Max 1-Sec Rate Max 1-Sec Time Max 5-Sec Rate Max 5-Sec Time Max 10Sec Rate Max 10Sec Time Avg Frame Size Max Frame Size Max Frame Time
------ ------- ------ -------------- -------------- -------------- -------------- -------------- -------------- -------------- -------------- -------------- --------------
1 0:00:00.000 0:04:58.214 20,186 kbps 42,834 kbps 00:02:06.084 34,322 kbps 00:02:04.999 30,520 kbps 00:02:04.999 106,655 bytes 404,331 bytes 00:02:09.045
2 0:04:58.214 0:03:34.297 17,096 kbps 24,174 kbps 00:07:32.660 22,098 kbps 00:07:30.616 21,461 kbps 00:07:26.028 89,131 bytes 207,009 bytes 00:05:56.689
3 0:08:32.511 0:06:02.820 16,865 kbps 27,744 kbps 00:13:58.462 25,381 kbps 00:13:55.960 23,674 kbps 00:13:55.960 88,106 bytes 240,891 bytes 00:08:35.515
4 0:14:35.332 0:06:05.990 19,084 kbps 34,985 kbps 00:19:51.607 33,745 kbps 00:19:51.565 26,594 kbps 00:19:51.565 99,493 bytes 428,632 bytes 00:19:54.610
5 0:20:41.323 0:03:57.612 18,154 kbps 33,391 kbps 00:22:27.554 30,238 kbps 00:22:23.717 24,950 kbps 00:21:48.807 94,649 bytes 303,223 bytes 00:21:31.081
6 0:24:38.935 0:05:40.340 17,248 kbps 25,193 kbps 00:26:36.094 22,197 kbps 00:26:35.760 21,006 kbps 00:26:32.090 89,923 bytes 276,611 bytes 00:25:25.190
7 0:30:19.275 0:02:50.837 17,761 kbps 24,933 kbps 00:30:25.532 23,096 kbps 00:30:23.571 20,680 kbps 00:30:19.275 92,598 bytes 332,396 bytes 00:30:28.451
8 0:33:10.113 0:02:40.326 15,131 kbps 21,094 kbps 00:33:43.312 20,293 kbps 00:33:34.679 19,191 kbps 00:33:34.512 78,887 bytes 160,506 bytes 00:33:45.940
9 0:35:50.439 0:01:56.783 17,596 kbps 21,460 kbps 00:37:46.222 19,688 kbps 00:37:42.218 18,734 kbps 00:37:37.213 91,736 bytes 214,809 bytes 00:37:47.181
10 0:37:47.223 0:03:55.443 16,706 kbps 24,340 kbps 00:37:58.317 23,572 kbps 00:38:57.918 22,590 kbps 00:38:55.916 87,099 bytes 324,617 bytes 00:41:42.666
11 0:41:42.666 0:04:58.256 17,868 kbps 24,473 kbps 00:42:21.747 23,002 kbps 00:41:47.630 22,750 kbps 00:41:43.083 93,156 bytes 320,443 bytes 00:41:45.669
12 0:46:40.923 0:03:51.022 17,587 kbps 22,462 kbps 00:49:54.032 21,578 kbps 00:49:50.737 21,025 kbps 00:49:21.667 91,688 bytes 178,238 bytes 00:47:32.307
13 0:50:31.945 0:04:31.938 17,778 kbps 23,172 kbps 00:53:13.607 21,861 kbps 00:53:11.313 21,127 kbps 00:53:11.313 92,688 bytes 212,575 bytes 00:51:07.397
14 0:55:03.883 0:04:57.547 19,982 kbps 29,628 kbps 00:57:58.808 28,152 kbps 00:57:56.139 26,494 kbps 00:57:50.884 104,178 bytes 259,881 bytes 00:59:10.505
15 1:00:01.431 0:04:43.533 17,079 kbps 28,370 kbps 01:01:52.542 24,347 kbps 01:01:50.164 23,370 kbps 01:02:19.569 89,043 bytes 343,696 bytes 01:01:35.733
16 1:04:44.964 0:03:44.515 17,724 kbps 26,589 kbps 01:06:38.494 25,374 kbps 01:06:38.494 24,570 kbps 01:06:38.452 92,404 bytes 327,020 bytes 01:06:38.536
17 1:08:29.480 0:03:31.419 17,583 kbps 24,316 kbps 01:08:44.578 22,115 kbps 01:08:41.283 21,141 kbps 01:08:35.486 91,668 bytes 418,522 bytes 01:08:44.745
18 1:12:00.899 0:02:01.037 23,534 kbps 39,343 kbps 01:13:02.419 35,414 kbps 01:13:02.378 30,923 kbps 01:12:57.039 122,696 bytes 370,066 bytes 01:12:58.082
19 1:14:01.937 0:02:50.378 19,654 kbps 32,182 kbps 01:16:09.398 28,336 kbps 01:16:08.438 23,804 kbps 01:14:01.937 102,469 bytes 319,605 bytes 01:16:10.607
20 1:16:52.316 0:04:16.339 19,451 kbps 37,260 kbps 01:20:08.303 30,789 kbps 01:20:05.717 29,536 kbps 01:20:01.129 101,407 bytes 427,306 bytes 01:20:10.096
21 1:21:08.655 0:02:24.978 17,384 kbps 22,496 kbps 01:23:23.248 21,382 kbps 01:22:45.085 20,984 kbps 01:22:40.080 90,630 bytes 225,119 bytes 01:23:23.581
22 1:23:33.633 0:03:56.027 18,826 kbps 24,229 kbps 01:26:36.649 23,884 kbps 01:27:09.682 22,081 kbps 01:26:27.682 98,152 bytes 335,569 bytes 01:23:41.266
23 1:27:29.661 0:03:17.739 18,475 kbps 25,398 kbps 01:27:47.303 24,313 kbps 01:28:14.497 22,924 kbps 01:28:13.579 96,318 bytes 297,277 bytes 01:30:19.414
24 1:30:47.400 0:01:37.597 18,080 kbps 20,478 kbps 01:31:26.814 19,676 kbps 01:31:26.564 19,253 kbps 01:31:26.814 94,261 bytes 187,441 bytes 01:31:27.773
25 1:32:24.997 0:04:11.376 15,056 kbps 20,028 kbps 01:36:31.118 17,394 kbps 01:36:08.137 16,618 kbps 01:36:03.132 78,496 bytes 188,896 bytes 01:36:36.332
26 1:36:36.373 0:02:44.122 18,101 kbps 24,689 kbps 01:37:52.700 22,069 kbps 01:37:52.449 21,430 kbps 01:38:48.047 94,369 bytes 336,474 bytes 01:39:20.454
27 1:39:20.496 0:03:14.819 19,297 kbps 27,353 kbps 01:41:15.360 25,777 kbps 01:41:14.777 24,687 kbps 01:41:09.855 100,608 bytes 347,356 bytes 01:39:47.189
28 1:42:35.315 0:03:44.307 19,321 kbps 23,503 kbps 01:45:24.943 21,991 kbps 01:45:11.346 21,601 kbps 01:45:11.179 100,732 bytes 190,684 bytes 01:42:37.317
29 1:46:19.623 0:02:56.926 17,333 kbps 28,071 kbps 01:47:41.955 24,618 kbps 01:47:38.034 21,795 kbps 01:47:39.035 90,879 bytes 227,488 bytes 01:46:36.431
30 1:49:16.549 0:07:34.495 4,586 kbps 11,805 kbps 01:54:00.375 11,258 kbps 01:53:59.791 10,621 kbps 01:53:57.372 24,470 bytes 241,588 bytes 01:54:00.834
31 1:56:51.045 0:00:01.001 212 kbps 0 kbps 00:00:00.000 0 kbps 00:00:00.000 0 kbps 00:00:00.000 2,206 bytes 9,240 bytes 01:56:52.004

STREAM DIAGNOSTICS:

File PID Type Codec Language Seconds Bitrate Bytes Packets
---- --- ---- ----- -------- -------------- -------------- ------------- -----
00001.M2TS 4113 (0x1011) 0xEA VC-1 7011.963 17,213 15,086,881,884 82,095,430
00001.M2TS 4352 (0x1100) 0x86 DTS-HD MA eng (English) 7011.963 3,520 3,085,470,752 17,861,414
00001.M2TS 4353 (0x1101) 0x81 AC3 spa (Spanish) 7011.963 640 561,041,920 3,287,355
00001.M2TS 4608 (0x1200) 0x90 PGS eng (English) 7011.963 29 25,091,132 143,885
00001.M2TS 4609 (0x1201) 0x90 PGS spa (Spanish) 7011.963 27 23,790,690 136,964


Из всех искусств для нас важнейшим является кино. Ленин В.И.
#65
GP
Blu-Ray Supporter
  • Total Posts : 6284
  • Scores: 1107
  • Joined: 2006/11/19 19:01:33
  • Location: Питер
  • Status: offline
RE: Релизы Новый Диск 2010/12/25 13:47:02 (ссылка)
0
Игорь Лопатенок на Кинопоиске: "Наш издатель в России — Новый диск -готовит релиз наших работ на Blu-Ray, думаю в середине февраля все уже будет на полках."

Полагаю, что речь идет о "В бой идут одни старики", "Волга-Волга", "Подкидыш", "Веселые ребята".
#66
Dexter Morgan
Любитель
  • Total Posts : 142
  • Scores: 0
  • Joined: 2009/02/04 17:28:00
  • Status: offline
RE: Релизы Новый Диск 2010/12/27 21:59:41 (ссылка)
0
"Из Парижа с любовью" поступил в продажу или нет?
#67
Sini
Любитель
  • Total Posts : 148
  • Scores: 0
  • Joined: 2009/11/02 20:38:57
  • Status: offline
RE: Релизы Новый Диск 2010/12/27 22:11:53 (ссылка)
0
ORIGINAL: Dexter Morgan

"Из Парижа с любовью" поступил в продажу или нет?

Да
#68
DTS
Эксперт
  • Total Posts : 2500
  • Scores: 357
  • Joined: 2007/01/09 13:35:30
  • Location: Литва
  • Status: offline
RE: Релизы Новый Диск 2010/12/27 23:00:51 (ссылка)
0
Жаль, не будет Тоталовских субтитров.

За это морду бить надо!
(с) Остап Бендер.
 
#69
Dexter Morgan
Любитель
  • Total Posts : 142
  • Scores: 0
  • Joined: 2009/02/04 17:28:00
  • Status: offline
RE: Релизы Новый Диск 2010/12/28 22:28:34 (ссылка)
0
ORIGINAL: Sini

ORIGINAL: Dexter Morgan

"Из Парижа с любовью" поступил в продажу или нет?

Да

А где, если не секрет? Нигде замечен не был.
#70
hdmaniac
Меценат
  • Total Posts : 10728
  • Scores: 9306
  • Joined: 2008/01/26 18:49:41
  • Location: Москва
  • Status: offline
RE: Релизы Новый Диск 2010/12/28 22:46:48 (ссылка)
0
ORIGINAL: Dexter Morgan

А где, если не секрет? Нигде замечен не был.


Я лично покупал на опте, ну вот здесь продаётся http://www.dvd100.ru/blu-ray/detail/22603/ 
если в Москве . Сегодня как раз посмотрел этот фильм, до этого я его не видел,мне лично
понравился . Притензий ни к видео, ни к дубляжу. Минус издания : отсутствие оригинальной
дороги,субтитров и допов , ролики не в счёт...

BLU-RAY -1309, 4K ULTRA HD - 104
4K UHD PANASONIC 824GK(B), 4K UDP OPPO 203(A),
OPPO BDP-93(ABC), LG BP325(C), PS 4 (500 Гб "A")
TV SONY 75 XF9005
projector EPSON 4K EH-TW9300, Elite Screens SKT100UHW-E12"
10 лет на Форуме и 10000 постов)
#71
trezor78
Гуру
  • Total Posts : 5658
  • Scores: 1109
  • Joined: 2010/10/06 18:50:20
  • Location: Москва
  • Status: offline
RE: Релизы Новый Диск 2011/02/03 10:26:23 (ссылка)
0
#72
brando
Эксперт
  • Total Posts : 3527
  • Scores: 114
  • Joined: 2010/11/25 12:53:49
  • Location: Томск
  • Status: offline
RE: Релизы Новый Диск 2011/02/22 06:24:14 (ссылка)
0
Картинка кстати классная на "Ёлки"!)) Бонусов нет и это непонятно вообще, так как на DVD они есть![:@]

я сделаю ему предложение, от которого он не сможет отказаться.
BD-001. DVD-679. VHS-300))))))))). BD-R-34.
#73
GP
Blu-Ray Supporter
  • Total Posts : 6284
  • Scores: 1107
  • Joined: 2006/11/19 19:01:33
  • Location: Питер
  • Status: offline
RE: Релизы Новый Диск 2011/03/02 21:10:19 (ссылка)
0
Во второй половине марта "Новый Диск" совместно с "Формулой цвета" выпускают на BD "Офицеры" и "Три тополя на Плющихе".
Рекомендуемая розничная цена: 499 руб (опт - 350 руб)

Известно ли там будут только раскрашенные, извините, колоризированные версии или черно-белые версии тоже будут?
#74
Discopeople_2
Любитель
  • Total Posts : 53
  • Scores: 0
  • Joined: 2010/07/18 19:45:53
  • Status: offline
RE: Релизы Новый Диск 2011/03/03 08:17:16 (ссылка)
0
ORIGINAL: GP

Во второй половине марта "Новый Диск" совместно с "Формулой цвета" выпускают на BD "Офицеры" и "Три тополя на Плющихе".
Рекомендуемая розничная цена: 499 руб (опт - 350 руб)

Известно ли там будут только раскрашенные, извините, колоризированные версии или черно-белые версии тоже будут?


А когда это Три тополя на Плющихе успели колоризовать?

З.Ы. Оригинальная дорожка будет?
#75
GP
Blu-Ray Supporter
  • Total Posts : 6284
  • Scores: 1107
  • Joined: 2006/11/19 19:01:33
  • Location: Питер
  • Status: offline
RE: Релизы Новый Диск 2011/03/03 08:39:54 (ссылка)
0
ORIGINAL: Discopeople_2

А когда это Три тополя на Плющихе успели колоризовать?

Сам удивляюсь. В недавнем диалоге с Игорем Лопатенко на КиноПоиске об этом не упоминалось. Но в списке новых релизов на сайте Нового Диска для DVD и для BD релизов "Три тополя на Плющихе" явно говориться, что это колоризированная версия. В отличии от BD издания Офицеров.
#76
GurgenAudio
Зритель
  • Total Posts : 33
  • Scores: 0
  • Joined: 2010/12/30 18:05:14
  • Status: offline
RE: Релизы Новый Диск 2011/03/03 22:10:42 (ссылка)
0
del
post edited by GurgenAudio - 2011/09/16 14:27:14
#77
hdmaniac
Меценат
  • Total Posts : 10728
  • Scores: 9306
  • Joined: 2008/01/26 18:49:41
  • Location: Москва
  • Status: offline
RE: Релизы Новый Диск 2011/03/03 22:20:14 (ссылка)
0
ORIGINAL: GurgenAudio

ORIGINAL: GP

Известно ли там будут только раскрашенные, извините, колоризированные версии или черно-белые версии тоже будут?


Черно-белых версий не будет, допов тоже.


А вот это жалко конечно, такая классика и без допов ...
Надеюсь, хоть за картинку не придётся краснеть GurgenAudio ...

BLU-RAY -1309, 4K ULTRA HD - 104
4K UHD PANASONIC 824GK(B), 4K UDP OPPO 203(A),
OPPO BDP-93(ABC), LG BP325(C), PS 4 (500 Гб "A")
TV SONY 75 XF9005
projector EPSON 4K EH-TW9300, Elite Screens SKT100UHW-E12"
10 лет на Форуме и 10000 постов)
#78
GP
Blu-Ray Supporter
  • Total Posts : 6284
  • Scores: 1107
  • Joined: 2006/11/19 19:01:33
  • Location: Питер
  • Status: offline
RE: Релизы Новый Диск 2011/03/03 22:24:33 (ссылка)
0
ORIGINAL: GurgenAudio

Черно-белых версий не будет, допов тоже.

Значит и денег на покупку тратить не стоит.

Выпускать колоризированную версию без оригинального черно-белового варианта аналогично изданию иностранного фильма без оригинальной звуковой дорожки. Игорь Лопатенок в качестве довода в защиту колоризации не раз указывал, что это привлечет к просмотру фильма молодое поколение, которое не в состоянии смотреть черно-белое кино (читай, привлечет молодых дебилов). Издания, содержащие одну только цветную версию, именно на таких зрителей и рассчитаны. Настоящий киноман побрезгует приобретать такое убожество себе в коллекцию.
post edited by GP - 2011/03/03 22:46:32
#79
DST
Blu-Ray Supporter
  • Total Posts : 2375
  • Scores: 32
  • Joined: 2010/01/07 04:01:41
  • Location: Санкт-Петербург
  • Status: offline
RE: Релизы Новый Диск 2011/03/03 23:30:29 (ссылка)
0
Мда... Вообще не понимаю, зачем это раскрашивание нужно? Кого привлекать? Молодому поколению ничего этого не нужно как это не подай.
Действительно пропало всё желание покупать эти замечательные фильмы. Ладно бонусы, их отсутствие ещё можно пережить, но разве трудно вместо BD25 с раскрашенной версией сделать BD50 c двумя? Тем более, что ремастеринг картины делался вместе с раскрашиванием. Неужели так трудно достойно выпустить классику, чтобы не краснеть потом?

Такой вопрос : Где нибудь в мире кто-то занимается подобным раскрашиванием своей чб классики?
#80
Page: < 12345.. > >> Showing page 4 of 115
Jump to:
© 2018 APG vNext Commercial Version 5.5