Правила | Zavvi | Amazon.com Amazon.ca Amazon.co.uk Amazon.de Amazon.fr Amazon.it Amazon.es | OZON.ru

AnsweredHot![FAQ]Улучшение изображения с помощью нейросетей [AI-UPSCALE]

Page: < 12345.. > >> Showing page 3 of 37
Author
hdmaniac
Меценат
  • Total Posts : 12343
  • Scores: 14286
  • Joined: 2008/01/26 18:49:41
  • Location: Москва
  • Status: offline
Re: Улучшение изображения с помощью нейросетей 2020/08/30 07:41:28 (ссылка)
0
Westman73region
Просто супер смотрится. Где можно будет скачать, если можно конечно? 

Ну так об этом уже выше писалось  - c Bluebird. Cпасибо Алексей!..
 

https://yadi.sk/i/CGvgcLKy5SYNUg
 
 
post edited by hdmaniac - 2020/08/30 12:37:51

BLU-RAY -1355, 4K ULTRA HD - 185
UHD 4K PANASONIC 824GK(ABC), UBD 4К OPPO 203(A), Sony UBP-X700(B), 
OPPO BDP-93 3D (ABC), LG BP325(C), PS 4 (500 Гб "A"), PS 5(1Тб "С")  Apple 4K TV
TV SONY 75 XF9005
projector EPSON 4K HDR EH-TW9300
 
#41
Westman73region
Зритель
  • Total Posts : 48
  • Scores: 13
  • Joined: 2018/09/15 06:42:35
  • Location: Димитровград
  • Status: offline
Re: Улучшение изображения с помощью нейросетей 2020/08/30 18:01:59 (ссылка)
0
Я уже об этом писал Владимир, что на птиц доступ закрыт для новых пользователей.
#42
alexeiden
Меценат
  • Total Posts : 2573
  • Scores: 571
  • Joined: 2005/03/31 15:46:32
  • Location: Москва
  • Status: offline
Re: Улучшение изображения с помощью нейросетей 2020/08/30 20:47:41 (ссылка)
0
Westman73region
Я уже об этом писал Владимир, что на птиц доступ закрыт для новых пользователей.


Они периодически открывают регистрацию. Или можете попросить кого-нибудь купить Вам инвайт с ВИП на месяц. (На месяц только ВИП, инвайт постоянный).
#43
QRI_Twong
Любитель
  • Total Posts : 89
  • Scores: -1
  • Joined: 2020/08/30 20:42:38
  • Status: offline
Re: Улучшение изображения с помощью нейросетей 2020/08/30 21:35:48 (ссылка)
0
alexeiden
Первый Шерлок готов!

 
Вы не обижайтесь, вам критику по делу пишу, на Птице я вам написала как Я вижу вашу работу. Вам нужно практики и много шишек, прежде чем поймете как надо верно. Но вы на правильном пути, не все сразу стали мастерами кодировки и ассами звука.
КП - издание - темное, от Твистера светлее, там лучше картинка. Но! То что показал другой оппонент, один черт мыло. Если смотреть на 4К панели Самсунг или LG, то сама панель автоматически скейлит картинку до 4К из любого сигнала и вы это НЕ отключите, алгоритм уже встроенный в саму прошивку.
 
Дерзайте, вы "первопроходец", вам и шишки все в одну котомку. Но научитесь:
1. Правильно подбирать фильтр
2. Битрейт и собственно настройки кодека.
 
По "Хутор Диканька": я вам дала с Амазона 2 года назад как его выложили, а до сих пор качество отличное. И заметьте - битрейт там всего 12 мегабит.
 
Video
ID                             : 1
Format                         : AVC
Format/Info                    : Advanced Video Codec
Format profile                 : High@L4.1
Format settings, CABAC         : Yes
Format settings, ReFrames      : 4 frames
Codec ID                       : V_MPEG4/ISO/AVC
Duration                       : 1 h 5 min
Bit rate mode                  : Constant
Bit rate                       : 12.0 Mb/s
Width                          : 1 440 pixels
Height                         : 1 080 pixels
Display aspect ratio           : 4:3
Frame rate mode                : Constant
Frame rate                     : 25.000 FPS
Standard                       : PAL
Color space                    : YUV
Chroma subsampling             : 4:2:0
Bit depth                      : 8 bits
Scan type                      : Progressive
Bits/(Pixel*Frame)             : 0.309
Stream size                    : 5.32 GiB (92%)
Title                          : Vechera na hutore bliz Dikanki 1962 1080p WEB-DL AMZN HHD
Language                       : Russian
Default                        : Yes
Forced                         : Yes
Color range                    : Limited
Color primaries                : BT.709
Transfer characteristics       : BT.709
Matrix coefficients            : BT.709

 
И нет квадратиков на картинке в любом месте, у вас битрейт запредельный, а все равно кубы есть. И "гладить" картинку НЕ НАДО. Лучше пусть будет шум.
 
Это все лирика. Вот вам мой проект, что на Кинозале лежит. Это не Амазон. хи-хи.. Это DVD-9 R1 в спец-софтинке сделан, за 3 дня кодировки на i7 с 16GB памяти и 4ТВ харда. Оригинал весил 2.87ТВ, потом был сжат до приемлемых размеров БД.
Это SDR-рип:
 



 
А это HDR-вариант:



 
Есть разница?
#44
alexeiden
Меценат
  • Total Posts : 2573
  • Scores: 571
  • Joined: 2005/03/31 15:46:32
  • Location: Москва
  • Status: offline
Re: Улучшение изображения с помощью нейросетей 2020/08/30 21:47:30 (ссылка)
0
Кеша готов!






#45
hdmaniac
Меценат
  • Total Posts : 12343
  • Scores: 14286
  • Joined: 2008/01/26 18:49:41
  • Location: Москва
  • Status: offline
Re: Улучшение изображения с помощью нейросетей 2020/08/30 21:51:48 (ссылка)
0
QRI_Twong
Есть разница?

По мне есть. В HDR лучше, чёткость немного лучше, и в тёмных местах лучше видны детали.
На большом экране разница будет больше...
alexeiden
Кеша готов!
 

Спасибо Алексей!..

BLU-RAY -1355, 4K ULTRA HD - 185
UHD 4K PANASONIC 824GK(ABC), UBD 4К OPPO 203(A), Sony UBP-X700(B), 
OPPO BDP-93 3D (ABC), LG BP325(C), PS 4 (500 Гб "A"), PS 5(1Тб "С")  Apple 4K TV
TV SONY 75 XF9005
projector EPSON 4K HDR EH-TW9300
 
#46
hdmaniac
Меценат
  • Total Posts : 12343
  • Scores: 14286
  • Joined: 2008/01/26 18:49:41
  • Location: Москва
  • Status: offline
Re: Улучшение изображения с помощью нейросетей 2020/08/30 21:54:53 (ссылка)
0
QRI_Twong
На пиратские ресурсы ссылки тут не надо..
 




BLU-RAY -1355, 4K ULTRA HD - 185
UHD 4K PANASONIC 824GK(ABC), UBD 4К OPPO 203(A), Sony UBP-X700(B), 
OPPO BDP-93 3D (ABC), LG BP325(C), PS 4 (500 Гб "A"), PS 5(1Тб "С")  Apple 4K TV
TV SONY 75 XF9005
projector EPSON 4K HDR EH-TW9300
 
#47
alexeiden
Меценат
  • Total Posts : 2573
  • Scores: 571
  • Joined: 2005/03/31 15:46:32
  • Location: Москва
  • Status: offline
Re: Улучшение изображения с помощью нейросетей 2020/08/30 21:57:06 (ссылка)
0
QRI_Twong
 
Вы не обижайтесь, вам критику по делу пишу, на Птице я вам написала как Я вижу вашу работу. Вам нужно практики и много шишек, прежде чем поймете как надо верно. Но вы на правильном пути, не все сразу стали мастерами кодировки и ассами звука.
КП - издание - темное, от Твистера светлее, там лучше картинка. Но! То что показал другой оппонент, один черт мыло. Если смотреть на 4К панели Самсунг или LG, то сама панель автоматически скейлит картинку до 4К из любого сигнала и вы это НЕ отключите, алгоритм уже встроенный в саму прошивку.
 
Дерзайте, вы "первопроходец", вам и шишки все в одну котомку. Но научитесь:
1. Правильно подбирать фильтр
2. Битрейт и собственно настройки кодека.
 

 
Я не обижаюсь, но слова, что автор напрасно тратит время и нет никакого прироста в качестве - это уже немного оскорбление и откровенная неправда. Вы судили по скринам с одного момента, сравнивая со скрином другого издания и при этом даже не скачав раздачу. У меня как бы глаза есть. И телевизор хороший. Я перед раздачей сам смотрю, я в первую очередь для себя делаю, хоть иногда и по просьбе чьей-нибудь. И не только я говорю, что прирост есть.
А вот что Вы хотите показать, это я не совсем понимаю, так как не вижу источника. И апскейл, а это как раз апскейл, на рисованной графике всё же проще.
Единственное, как я понял Вы умеете делать из другого источника видео 4К в HDR. А вот это вот очень ценно, так как давно вынашиваю планы на проект мечты: "Бегущий по лезвию" гибридная версия из Final Cut и международной театральной в 4К. Т.е. по смыслу - театралка (закадровый голос, Хэппи-энд), а по видео преимущественно файналкат в 4К. Там работа основная со звуком, но на это уже есть желающие. А вот по видео там всего-то два момента - богомерзская лошадь и собственно хэппи-энд, вот их надо в HDR как-то сделать. за это никто не берётся... Не хотите помочь?
 
 
#48
QRI_Twong
Любитель
  • Total Posts : 89
  • Scores: -1
  • Joined: 2020/08/30 20:42:38
  • Status: offline
Re: Улучшение изображения с помощью нейросетей 2020/08/30 22:05:33 (ссылка)
0
hdmaniac
QRI_Twong
На пиратские ресурсы ссылки тут не надо..

Не вопрос, вот с этими просьба сравнить: 
[url=http://lostpic.net/image/yMbi][/url]
#49
alexeiden
Меценат
  • Total Posts : 2573
  • Scores: 571
  • Joined: 2005/03/31 15:46:32
  • Location: Москва
  • Status: offline
Re: Улучшение изображения с помощью нейросетей 2020/08/30 22:12:32 (ссылка)
0
QRI_Twong

Не вопрос, вот с этими просьба сравнить: 

Как?! Это разные мультфильмы!
#50
QRI_Twong
Любитель
  • Total Posts : 89
  • Scores: -1
  • Joined: 2020/08/30 20:42:38
  • Status: offline
Re: Улучшение изображения с помощью нейросетей 2020/08/30 22:16:03 (ссылка)
0
alexeiden
 
Я не обижаюсь, но слова, что автор напрасно тратит время и нет никакого прироста в качестве - это уже немного оскорбление и откровенная неправда. Вы судили по скринам с одного момента, сравнивая со скрином другого издания и при этом даже не скачав раздачу. У меня как бы глаза есть. И телевизор хороший. Я перед раздачей сам смотрю, я в первую очередь для себя делаю, хоть иногда и по просьбе чьей-нибудь. И не только я говорю, что прирост есть.
А вот что Вы хотите показать, это я не совсем понимаю, так как не вижу источника. И апскейл, а это как раз апскейл, на рисованной графике всё же проще.
Единственное, как я понял Вы умеете делать из другого источника видео 4К в HDR. А вот это вот очень ценно, так как давно вынашиваю планы на проект мечты: "Бегущий по лезвию" гибридная версия из Final Cut и международной театральной в 4К. Т.е. по смыслу - театралка (закадровый голос, Хэппи-энд), а по видео преимущественно файналкат в 4К. Там работа основная со звуком, но на это уже есть желающие. А вот по видео там всего-то два момента - богомерзская лошадь и собственно хэппи-энд, вот их надо в HDR как-то сделать. за это никто не берётся... Не хотите помочь?

у меня интернет мобильный, с 100ГБ трафика в обе стороны, а это и скайп и ютуб и сеть и торрент. Мало... Домашнего нет, я в поездке за границей с ноутом. Так что, качаю только то, что хочу и могу выкроить трафик. А по вашим скринам, ну не могу я качать и все. Не понравилось, мыльно оно, я сама такое могу дома сделать и в HDR.
Подходя к вопросу об HDR - длительный и болезненный процесс. У вас он не пойдет скорей всего, надо в Хевк делать ибо.. вот инфо видео, сами поймете.
Video
ID : 1
Format : AVC
Format/Info : Advanced Video Codec
Format profile : High 4:4:4 Predictive@L5.1
Format settings : CABAC / 4 Ref Frames
Format settings, CABAC : Yes
Format settings, Reference fra : 4 frames
Codec ID : V_MPEG4/ISO/AVC
Duration : 1 h 19 min
Bit rate mode : Variable
Bit rate : 60.0 Mb/s
Maximum bit rate : 80.0 Mb/s
Width : 3 840 pixels
Height : 2 160 pixels
Display aspect ratio : 16:9
Frame rate mode : Constant
Frame rate : 23.976 (24000/1001) FPS
Standard : NTSC
Color space : YUV
Chroma subsampling : 4:4:4
Bit depth : 10 bits
Scan type : Progressive
Bits/(Pixel*Frame) : 0.302
Stream size : 33.4 GiB (83%)
Title : The Sword in the Stone 1963 UHD 4K HDR AVC BT2020 CHROMA 4-4-4 WEB-DL
Writing library : x264 core 148
Encoding settings : cabac=1 / ref=4 / deblock=1:0:0 / analyse=0x3:0x113 / me=hex / subme=7 / psy=1 / psy_rd=1.00:0.00 / mixed_ref=1 / me_range=16 / chroma_me=1 / trellis=1 / 8x8dct=1 / cqm=1 / deadzone=21,11 / fast_pskip=1 / chroma_qp_offset=4 / threads=4 / lookahead_threads=4 / sliced_threads=1 / slices=4 / nr=0 / decimate=1 / interlaced=0 / minigop=0 / stitchable=1 / constrained_intra=0 / bframes=6 / b_pyramid=0 / b_adapt=1 / b_bias=0 / direct=1 / weightb=1 / open_gop=1 / weightp=2 / keyint=120 / keyint_min=61 / scenecut=100 / intra_refresh=0 / rc_lookahead=40 / rc=abr / mbtree=1 / bitrate=60000 / ratetol=1.0 / qcomp=0.60 / qpmin=1 / qpmax=69 / qpstep=4 / vbv_maxrate=80000 / vbv_bufsize=80000 / nal_hrd=vbr / filler=0 / ip_ratio=1.40 / aq=1:1.00
Language : English
Default : Yes
Forced : Yes
Color range : Full
Color primaries : BT.2020
Transfer characteristics : BT.2020 (10-bit)
Matrix coefficients : BT.2020 non-constant

#51
hdmaniac
Меценат
  • Total Posts : 12343
  • Scores: 14286
  • Joined: 2008/01/26 18:49:41
  • Location: Москва
  • Status: offline
Re: Улучшение изображения с помощью нейросетей 2020/08/30 22:16:13 (ссылка)
0
QRI_Twong
 
Не вопрос, вот с этими просьба сравнить: 
[url=http://lostpic.net/image/yMbi][/url]

А с чем сравнить то? Ваши скрины, то картинка - близко к DVD, когда будет возможность сравнить с 
тем что сделал Алексей то можно более точно сказать. Но то что выше уже выложены скрины его
работы видно что чёткость у него выше...

BLU-RAY -1355, 4K ULTRA HD - 185
UHD 4K PANASONIC 824GK(ABC), UBD 4К OPPO 203(A), Sony UBP-X700(B), 
OPPO BDP-93 3D (ABC), LG BP325(C), PS 4 (500 Гб "A"), PS 5(1Тб "С")  Apple 4K TV
TV SONY 75 XF9005
projector EPSON 4K HDR EH-TW9300
 
#52
QRI_Twong
Любитель
  • Total Posts : 89
  • Scores: -1
  • Joined: 2020/08/30 20:42:38
  • Status: offline
Re: Улучшение изображения с помощью нейросетей 2020/08/30 22:20:25 (ссылка)
-1 (1)
alexeidenКак?! Это разные мультфильмы!

Скрины одинаковые, кеша на кресле. Сравните сами.

#53
hdmaniac
Меценат
  • Total Posts : 12343
  • Scores: 14286
  • Joined: 2008/01/26 18:49:41
  • Location: Москва
  • Status: offline
Re: Улучшение изображения с помощью нейросетей 2020/08/30 22:23:53 (ссылка)
0
Цветовая палитра другая. Картинка у Алексея чётче...

BLU-RAY -1355, 4K ULTRA HD - 185
UHD 4K PANASONIC 824GK(ABC), UBD 4К OPPO 203(A), Sony UBP-X700(B), 
OPPO BDP-93 3D (ABC), LG BP325(C), PS 4 (500 Гб "A"), PS 5(1Тб "С")  Apple 4K TV
TV SONY 75 XF9005
projector EPSON 4K HDR EH-TW9300
 
#54
QRI_Twong
Любитель
  • Total Posts : 89
  • Scores: -1
  • Joined: 2020/08/30 20:42:38
  • Status: offline
Re: Улучшение изображения с помощью нейросетей 2020/08/30 22:29:30 (ссылка)
0
hdmaniac
Цветовая палитра другая. Картинка у Алексея чётче...


Нет. Если есть возможность, сделайте скрин с Кешей на кресле. Темнее и "поглажено", что не есть гуд. Не надо гладить шум!
Гляньте под кресло, там же пипец полный с квадратами и темнотой.
#55
hdmaniac
Меценат
  • Total Posts : 12343
  • Scores: 14286
  • Joined: 2008/01/26 18:49:41
  • Location: Москва
  • Status: offline
Re: Улучшение изображения с помощью нейросетей 2020/08/30 22:43:30 (ссылка)
0
Вот скрины, по моему всё понятно где картинка чётче и темнее, а где DVD...
 
https://yadi.sk/i/I4yrkpo7XDDKwQ
 
https://yadi.sk/i/gfkHIPGAKVbYSg

BLU-RAY -1355, 4K ULTRA HD - 185
UHD 4K PANASONIC 824GK(ABC), UBD 4К OPPO 203(A), Sony UBP-X700(B), 
OPPO BDP-93 3D (ABC), LG BP325(C), PS 4 (500 Гб "A"), PS 5(1Тб "С")  Apple 4K TV
TV SONY 75 XF9005
projector EPSON 4K HDR EH-TW9300
 
#56
QRI_Twong
Любитель
  • Total Posts : 89
  • Scores: -1
  • Joined: 2020/08/30 20:42:38
  • Status: offline
Re: Улучшение изображения с помощью нейросетей 2020/08/30 22:48:36 (ссылка)
-1 (1)
hdmaniac
Вот скрины, по моему всё понятно где картинка чётче и темнее, а где DVD...

нужен скриншот а не снимок с проэкта. Просьба автору - сделайте пожалуйста кадр в кадр.
#57
hdmaniac
Меценат
  • Total Posts : 12343
  • Scores: 14286
  • Joined: 2008/01/26 18:49:41
  • Location: Москва
  • Status: offline
Re: Улучшение изображения с помощью нейросетей 2020/08/30 23:06:06 (ссылка)
-1 (1)
QRI_Twong а чего минусовать то. Сравнивайте ...
https://yadi.sk/i/BXMd3hXRyzVceg

BLU-RAY -1355, 4K ULTRA HD - 185
UHD 4K PANASONIC 824GK(ABC), UBD 4К OPPO 203(A), Sony UBP-X700(B), 
OPPO BDP-93 3D (ABC), LG BP325(C), PS 4 (500 Гб "A"), PS 5(1Тб "С")  Apple 4K TV
TV SONY 75 XF9005
projector EPSON 4K HDR EH-TW9300
 
#58
hdmaniac
Меценат
  • Total Posts : 12343
  • Scores: 14286
  • Joined: 2008/01/26 18:49:41
  • Location: Москва
  • Status: offline
Re: Улучшение изображения с помощью нейросетей 2020/08/30 23:08:53 (ссылка)
-1 (1)
QRI_Twong
 
 
Тролите похоже вы. Если будете продолжать - разговор будет быстро закончен... 

BLU-RAY -1355, 4K ULTRA HD - 185
UHD 4K PANASONIC 824GK(ABC), UBD 4К OPPO 203(A), Sony UBP-X700(B), 
OPPO BDP-93 3D (ABC), LG BP325(C), PS 4 (500 Гб "A"), PS 5(1Тб "С")  Apple 4K TV
TV SONY 75 XF9005
projector EPSON 4K HDR EH-TW9300
 
#59
alexeiden
Меценат
  • Total Posts : 2573
  • Scores: 571
  • Joined: 2005/03/31 15:46:32
  • Location: Москва
  • Status: offline
Re: Улучшение изображения с помощью нейросетей 2020/08/30 23:13:37 (ссылка)
+1 (1)
 
И? Вы меня простите, но мой вариант лучше смотрится. Мы с Вами спорим о том, что дело вкуса. Я не стремлюсь оставить как есть - я хочу улучшить. Чтобы это смотрелось лучше на современном оборудовании. Чище. Ярче. Мне так больше нравится. Кому-то больше нравится по другому. Вон один мой хейтер уже нашёлся, так у него и "Остров сокровищ" псевдоBlu-Ray лицензионный лучше, чем мой вариант. Цвета там ламповые. Ну что я могу на это сказать... 
Прекрасно, когда есть выбор. Те, кому не нравятся мои варианты, всегда могут сделать свои.
 
Так как насчёт "Бегущего по лезвию"? Сможете помочь?
#60
Page: < 12345.. > >> Showing page 3 of 37
Jump to:
© 2021 APG vNext Commercial Version 5.5