Правила | Zavvi | Amazon.com Amazon.ca Amazon.co.uk Amazon.de Amazon.fr Amazon.it Amazon.es | OZON.ru

Южный парк: Сезон 5 / South Park (2001, Новый Диск)

Page: < 12 Showing page 2 of 2
Author
John Ryder
Эксперт
  • Total Posts : 1395
  • Scores: 723
  • Joined: 2009/05/26 20:12:13
  • Location: Мордор а.к.а. Империя Зла
  • Status: offline
Re: Южный парк: Сезон 5 / South Park (2001, Новый Диск) 2014/04/19 17:00:17 (ссылка)
0
Допустимы отзывы под разными именами (на один и тот же товар) с одного аккаунта? Странная политика...
#21
John Ryder
Эксперт
  • Total Posts : 1395
  • Scores: 723
  • Joined: 2009/05/26 20:12:13
  • Location: Мордор а.к.а. Империя Зла
  • Status: offline
Re: Южный парк: Сезон 5 / South Park (2001, Новый Диск) 2014/04/20 00:21:39 (ссылка)
0

 
Забрал заказ, судя по вложенной листовке и рекламному ролику на каждом диске, релиз приурочен к выходу игры. Все диски запустились (стационары BD/DVD и DVD привод ноута), рабочая поверхность с царапинами и маленькими дефектами литья (ООО "Маркон", указаны и другие заводы).
Не нашел данные по американскому релизу, но похоже у нас как всегда эксклюзив[:@]:
 
DVD1 [3.42 Gb - 5 серий] --- DVD2 [4.34 Gb - 5 серий] --- DVD3 [3.54 Gb - 4 серии]
 
Пример серии с первого диска:
 

 
Complete name                            : D:\VIDEO_TS\VTS_05_1.VOB
 
Format                                   : MPEG-PS
 
File size                                : 642 MiB
 
Duration                                 : 22mn 0s
 
Overall bit rate mode                    : Variable
 
Overall bit rate                         : 4 078 Kbps
 
 
 
Video
 
ID                                       : 224 (0xE0)
 
Format                                   : MPEG Video
 
Format version                           : Version 2
 
Format profile                           : Main@Main
 
Format settings, BVOP                    : Yes
 
Format settings, Matrix                  : Default
 
Format settings, GOP                     : M=3, N=12
 
Duration                                 : 22mn 0s
 
Bit rate mode                            : Variable
 
Bit rate                                 : 3 805 Kbps
 
Maximum bit rate                         : 7 000 Kbps
 
Width                                    : 720 pixels
 
Height                                   : 576 pixels
 
Display aspect ratio                     : 4:3
 
Frame rate                               : 25.000 fps
 
Standard                                 : PAL
 
Color space                              : YUV
 
Chroma subsampling                       : 4:2:0
 
Bit depth                                : 8 bits
 
Scan type                                : Progressive
 
Compression mode                         : Lossy
 
Bits/(Pixel*Frame)                       : 0.367
 
Time code of first frame                 : 00:00:00:00
 
Time code source                         : Group of pictures header
 
Stream size                              : 599 MiB (93%)
 
 
 
Audio
 
ID                                       : 189 (0xBD)-128 (0x80)
 
Format                                   : AC-3
 
Format/Info                              : Audio Coding 3
 
Mode extension                           : CM (complete main)
 
Format settings, Endianness              : Big
 
Muxing mode                              : DVD-Video
 
Duration                                 : 22mn 0s
 
Bit rate mode                            : Constant
 
Bit rate                                 : 192 Kbps
 
Channel(s)                               : 2 channels
 
Channel positions                        : Front: L R
 
Sampling rate                            : 48.0 KHz
 
Bit depth                                : 16 bits
 
Compression mode                         : Lossy
 
Stream size                              : 30.2 MiB (5%)
 

 
На втором и третьем диске серии ~ по 830 Mb. Меню "анимировано" - является кусочком мульта (причем картинка заметно хуже чем в самих сериях).
 
Скриншоты:
 
http://yadi.sk/d/__hHgr80MnoDs
http://yadi.sk/d/8wLhOxiQMnoLx
http://yadi.sk/d/iTVMUGTkMnnyx
http://yadi.sk/d/PI_Rlj_eMno84

http://yadi.sk/d/ZSKydplFMnoM5
http://yadi.sk/d/CJsRWUo0MnoRK
http://yadi.sk/d/hYn23Mn9MnoUr
post edited by John Ryder - 2014/04/20 18:25:21
#22
Sergey Stalin
Любитель
  • Total Posts : 256
  • Scores: 64
  • Joined: 2009/06/21 15:41:41
  • Location: Москва
  • Status: offline
Re: Южный парк: Сезон 5 / South Park (2001, Новый Диск) 2014/04/25 18:01:37 (ссылка)
0
John Ryder
P.S. WTF? - http://www.ozon.ru/context/client_opinion/clientguid/cd179b84-6bd8-4a9b-a900-19d1326d8ed9/
Три отзыва под разными именами [sm=be.gif]



Уже пять накатал и даже успел оставить комментарий о качестве издания шестого сезона

#23
John Ryder
Эксперт
  • Total Posts : 1395
  • Scores: 723
  • Joined: 2009/05/26 20:12:13
  • Location: Мордор а.к.а. Империя Зла
  • Status: offline
Re: Южный парк: Сезон 5 / South Park (2001, Новый Диск) 2014/04/25 19:32:27 (ссылка)
0
Пятый не устроил, но шестой всё равно купил(а). Оптимист(ка)
post edited by John Ryder - 2014/04/25 20:04:25
#24
LINK001
Зритель
  • Total Posts : 47
  • Scores: 123
  • Joined: 2017/11/15 11:38:52
  • Status: offline
Re: Южный парк: Сезон 5 / South Park (2001, Новый Диск) 2021/03/18 18:25:39 (ссылка)
0
Подскажите пожалуйста, помимо 5 и 6 сезона выпустили ли еще какие-нибудь?
#25
Sergey Stalin
Любитель
  • Total Posts : 256
  • Scores: 64
  • Joined: 2009/06/21 15:41:41
  • Location: Москва
  • Status: offline
Re: Южный парк: Сезон 5 / South Park (2001, Новый Диск) 2021/03/18 20:43:00 (ссылка)
0
LINK001
Подскажите пожалуйста, помимо 5 и 6 сезона выпустили ли еще какие-нибудь?




Только эти два.

DVD - 9042
Blu-Ray - 2176
4K UHD Blu-Ray - 170
#26
LINK001
Зритель
  • Total Posts : 47
  • Scores: 123
  • Joined: 2017/11/15 11:38:52
  • Status: offline
Re: Южный парк: Сезон 5 / South Park (2001, Новый Диск) 2021/03/25 12:55:12 (ссылка)
0
Спасибо за ответ. Очень жаль.
#27
Page: < 12 Showing page 2 of 2
Jump to:
© 2022 APG vNext Commercial Version 5.5