Правила | Zavvi | Amazon.com Amazon.ca Amazon.co.uk Amazon.de Amazon.fr Amazon.it Amazon.es | OZON.ru

AnsweredHot![FAQ]Улучшение изображения с помощью нейросетей [AI-UPSCALE]

Page: << < ..146147148149150.. > >> Showing page 148 of 162
Author
shurik_pronkin
Любитель
  • Total Posts : 64
  • Scores: 2
  • Joined: 2024/01/12 13:04:34
  • Status: offline
Re: Улучшение изображения с помощью нейросетей 2024/02/07 12:06:10 (ссылка)
0
Друзья, помогите понять, почему с пайпом получается меньший битрей и соответственно размер файла?
 
--------- ffv1 10bit с пайпом - Bit rate: 451 Mb/s ---------
 
ffmpeg "-hide_banner" "-i" "C:/vto/pushie-proba.avi" "-sws_flags" "spline+accurate_rnd+full_chroma_int" "-color_trc" "2" "-colorspace" "2" "-color_primaries" "2" "-filter_complex" "tvai_fi=model=chf-3:slowmo=1:rdt=-0.000001:fps=50:device=0:vram=1:instances=0,tvai_up=model=gcg-5:scale=0:w=1920:h=1440:device=0:vram=1:instances=0,scale=w=1920:h=1440:flags=lanczos:threads=0" "-strict" "-1" "-pix_fmt" "yuv420p" "-f" "yuv4mpegpipe" "-" | "C:\avs2\ffmpeg_32.exe" -nostdin -y -f yuv4mpegpipe -i - -c:v ffv1 -coder 1 -context 1 -g 1 -slices 4 -pix_fmt yuv420p10le "C:/vto/pushie-1.avi"
 
--------- ffv1 10bit без пайпа - Bit rate : 731 Mb/s ---------
 
ffmpeg "-hide_banner" "-i" "C:/vto/pushie-proba.avi" "-sws_flags" "spline+accurate_rnd+full_chroma_int" "-color_trc" "2" "-colorspace" "2" "-color_primaries" "2" "-filter_complex" "tvai_fi=model=chf-3:slowmo=1:rdt=-0.000001:fps=50:device=0:vram=1:instances=0,tvai_up=model=gcg-5:scale=0:w=1920:h=1440:device=0:vram=1:instances=0,scale=w=1920:h=1440:flags=lanczos:threads=0" "-c:v" "ffv1" "-pix_fmt" "yuv420p10le" "-slices" "4" "-slicecrc" "1" "-g" "1" "C:/vto/pushie-2.avi"
post edited by shurik_pronkin - 2024/02/07 12:13:08
TOPAZAVR
Любитель
  • Total Posts : 288
  • Scores: 154
  • Joined: 2022/10/15 13:18:25
  • Status: offline
Re: Улучшение изображения с помощью нейросетей 2024/02/07 12:42:14 (ссылка)
+1 (1)
shurik_pronkin
Друзья, помогите понять, почему с пайпом получается меньший битрей и соответственно размер файла?
 
--------- ffv1 10bit с пайпом - Bit rate: 451 Mb/s ---------
 
ffmpeg "-hide_banner" "-i" "C:/vto/pushie-proba.avi" "-sws_flags" "spline+accurate_rnd+full_chroma_int" "-color_trc" "2" "-colorspace" "2" "-color_primaries" "2" "-filter_complex" "tvai_fi=model=chf-3:slowmo=1:rdt=-0.000001:fps=50:device=0:vram=1:instances=0,tvai_up=model=gcg-5:scale=0:w=1920:h=1440:device=0:vram=1:instances=0,scale=w=1920:h=1440:flags=lanczos:threads=0" "-strict" "-1" "-pix_fmt" "yuv420p" "-f" "yuv4mpegpipe" "-" | "C:\avs2\ffmpeg_32.exe" -nostdin -y -f yuv4mpegpipe -i - -c:v ffv1 -coder 1 -context 1 -g 1 -slices 4 -pix_fmt yuv420p10le "C:/vto/pushie-1.avi"
 
--------- ffv1 10bit без пайпа - Bit rate : 731 Mb/s ---------
 
ffmpeg "-hide_banner" "-i" "C:/vto/pushie-proba.avi" "-sws_flags" "spline+accurate_rnd+full_chroma_int" "-color_trc" "2" "-colorspace" "2" "-color_primaries" "2" "-filter_complex" "tvai_fi=model=chf-3:slowmo=1:rdt=-0.000001:fps=50:device=0:vram=1:instances=0,tvai_up=model=gcg-5:scale=0:w=1920:h=1440:device=0:vram=1:instances=0,scale=w=1920:h=1440:flags=lanczos:threads=0" "-c:v" "ffv1" "-pix_fmt" "yuv420p10le" "-slices" "4" "-slicecrc" "1" "-g" "1" "C:/vto/pushie-2.avi"


 
Зачем разные параметры кодирования?
  1. -coder 1 -context 1
  2. -slicecrc 1
shurik_pronkin
Любитель
  • Total Posts : 64
  • Scores: 2
  • Joined: 2024/01/12 13:04:34
  • Status: offline
Re: Улучшение изображения с помощью нейросетей 2024/02/07 12:59:10 (ссылка)
0
TOPAZAVR
shurik_pronkin
Друзья, помогите понять, почему с пайпом получается меньший битрей и соответственно размер файла?
 
--------- ffv1 10bit с пайпом - Bit rate: 451 Mb/s ---------
 
ffmpeg "-hide_banner" "-i" "C:/vto/pushie-proba.avi" "-sws_flags" "spline+accurate_rnd+full_chroma_int" "-color_trc" "2" "-colorspace" "2" "-color_primaries" "2" "-filter_complex" "tvai_fi=model=chf-3:slowmo=1:rdt=-0.000001:fps=50:device=0:vram=1:instances=0,tvai_up=model=gcg-5:scale=0:w=1920:h=1440:device=0:vram=1:instances=0,scale=w=1920:h=1440:flags=lanczos:threads=0" "-strict" "-1" "-pix_fmt" "yuv420p" "-f" "yuv4mpegpipe" "-" | "C:\avs2\ffmpeg_32.exe" -nostdin -y -f yuv4mpegpipe -i - -c:v ffv1 -coder 1 -context 1 -g 1 -slices 4 -pix_fmt yuv420p10le "C:/vto/pushie-1.avi"
 
--------- ffv1 10bit без пайпа - Bit rate : 731 Mb/s ---------
 
ffmpeg "-hide_banner" "-i" "C:/vto/pushie-proba.avi" "-sws_flags" "spline+accurate_rnd+full_chroma_int" "-color_trc" "2" "-colorspace" "2" "-color_primaries" "2" "-filter_complex" "tvai_fi=model=chf-3:slowmo=1:rdt=-0.000001:fps=50:device=0:vram=1:instances=0,tvai_up=model=gcg-5:scale=0:w=1920:h=1440:device=0:vram=1:instances=0,scale=w=1920:h=1440:flags=lanczos:threads=0" "-c:v" "ffv1" "-pix_fmt" "yuv420p10le" "-slices" "4" "-slicecrc" "1" "-g" "1" "C:/vto/pushie-2.avi"


Зачем разные параметры кодирования?
  1. -coder 1 -context 1
  2. -slicecrc 1




1. такую строку нашел в https://trac.ffmpeg.org/wiki/Encode/FFV1 , если slicecrc вообще не заявлять по умолчанию все равно будет 1
 
 
Сделаю одинаковые параметры и сравню.
post edited by shurik_pronkin - 2024/02/07 13:19:01
shurik_pronkin
Любитель
  • Total Posts : 64
  • Scores: 2
  • Joined: 2024/01/12 13:04:34
  • Status: offline
Re: Улучшение изображения с помощью нейросетей 2024/02/07 13:12:02 (ссылка)
0
--------- ffv1 10bit с пайпом - Bit rate: 487 Mb/s ---------
 
ffmpeg "-hide_banner" "-i" "C:/vto/pushie-proba.avi" "-sws_flags" "spline+accurate_rnd+full_chroma_int" "-color_trc" "2" "-colorspace" "2" "-color_primaries" "2" "-filter_complex" "tvai_fi=model=chf-3:slowmo=1:rdt=-0.000001:fps=50:device=0:vram=1:instances=0,tvai_up=model=gcg-5:scale=0:w=1920:h=1440:device=0:vram=1:instances=0,scale=w=1920:h=1440:flags=lanczos:threads=0" "-strict" "-1" "-pix_fmt" "yuv420p" "-f" "yuv4mpegpipe" "-" | "C:\avs2\ffmpeg_32.exe" -nostdin -y -f yuv4mpegpipe -i - -c:v ffv1 -slicecrc 1 -g 1 -slices 4 -pix_fmt yuv420p10le "C:/vto/pushie-pipe.avi"
 
General
Complete name : C:\vto\pushie-pipe.avi
Format : AVI
Format/Info : Audio Video Interleave
File size : 254 MiB
Duration : 4 s 380 ms
Overall bit rate mode : Variable
Overall bit rate : 487 Mb/s
Frame rate : 50.000 FPS
Writing application : Lavf60.5.100
Video
ID : 0
Format : FFV1
Format version : Version 3.4
Format settings, GOP : N=1
Codec ID : FFV1
Duration : 4 s 380 ms
Bit rate mode : Variable
Bit rate : 487 Mb/s
Width : 1 920 pixels
Height : 1 440 pixels
Display aspect ratio : 4:3
Frame rate : 50.000 FPS
Color space : YUV
Chroma subsampling : 4:2:0
Bit depth : 10 bits
Scan type : Progressive
Compression mode : Lossless
Bits/(Pixel*Frame) : 3.521
Stream size : 254 MiB (100%)
coder_type : Range Coder
MaxSlicesCount : 4
ErrorDetectionType : Per slice
 
--------- ffv1 10bit без пайпа - Bit rate: 769 Mb/s ---------
 
ffmpeg "-hide_banner" "-i" "C:/vto/pushie-proba.avi" "-sws_flags" "spline+accurate_rnd+full_chroma_int" "-color_trc" "2" "-colorspace" "2" "-color_primaries" "2" "-filter_complex" "tvai_fi=model=chf-3:slowmo=1:rdt=-0.000001:fps=50:device=0:vram=1:instances=0,tvai_up=model=gcg-5:scale=0:w=1920:h=1440:device=0:vram=1:instances=0,scale=w=1920:h=1440:flags=lanczos:threads=0" "-c:v" "ffv1" "-pix_fmt" "yuv420p10le" "-slices" "4" "-slicecrc" "1" "-g" "1" "C:/vto/pushie-no-pipe.avi"
 
General
Complete name : C:\vto\pushie-no-pipe.avi
Format : AVI
Format/Info : Audio Video Interleave
File size : 402 MiB
Duration : 4 s 380 ms
Overall bit rate mode : Variable
Overall bit rate : 769 Mb/s
Frame rate : 50.000 FPS
Writing application : Lavf60.20.100
Video
ID : 0
Format : FFV1
Format version : Version 3.4
Format settings, GOP : N=1
Codec ID : FFV1
Duration : 4 s 380 ms
Bit rate mode : Variable
Bit rate : 769 Mb/s
Width : 1 920 pixels
Height : 1 440 pixels
Display aspect ratio : 4:3
Frame rate : 50.000 FPS
Color space : YUV
Chroma subsampling : 4:2:0
Bit depth : 10 bits
Scan type : Progressive
Compression mode : Lossless
Bits/(Pixel*Frame) : 5.564
Stream size : 402 MiB (100%)
coder_type : Range Coder
MaxSlicesCount : 4
ErrorDetectionType : Per slice
 
 
По скорости пайп чуть быстрее:
 
пайп: frame=  219 fps=1.3 q=-0.0 Lsize=  260222kB time=00:00:04.38 bitrate=488929.9kbits/s speed=0.0257x
 
не-пайп: frame=  219 fps=1.2 q=-0.0 Lsize=  411232kB time=00:00:04.38 bitrate=769135.6kbits/s speed=0.0247x
post edited by shurik_pronkin - 2024/02/07 13:20:17
TOPAZAVR
Любитель
  • Total Posts : 288
  • Scores: 154
  • Joined: 2022/10/15 13:18:25
  • Status: offline
Re: Улучшение изображения с помощью нейросетей 2024/02/07 13:51:00 (ссылка)
+1 (1)
shurik_pronkin
Спойлер

--------- ffv1 10bit с пайпом - Bit rate: 487 Mb/s ---------
 
ffmpeg "-hide_banner" "-i" "C:/vto/pushie-proba.avi" "-sws_flags" "spline+accurate_rnd+full_chroma_int" "-color_trc" "2" "-colorspace" "2" "-color_primaries" "2" "-filter_complex" "tvai_fi=model=chf-3:slowmo=1:rdt=-0.000001:fps=50:device=0:vram=1:instances=0,tvai_up=model=gcg-5:scale=0:w=1920:h=1440:device=0:vram=1:instances=0,scale=w=1920:h=1440:flags=lanczos:threads=0" "-strict" "-1" "-pix_fmt" "yuv420p" "-f" "yuv4mpegpipe" "-" | "C:\avs2\ffmpeg_32.exe" -nostdin -y -f yuv4mpegpipe -i - -c:v ffv1 -slicecrc 1 -g 1 -slices 4 -pix_fmt yuv420p10le "C:/vto/pushie-pipe.avi"
 
General
Complete name : C:\vto\pushie-pipe.avi
Format : AVI
Format/Info : Audio Video Interleave
File size : 254 MiB
Duration : 4 s 380 ms
Overall bit rate mode : Variable
Overall bit rate : 487 Mb/s
Frame rate : 50.000 FPS
Writing application : Lavf60.5.100
Video
ID : 0
Format : FFV1
Format version : Version 3.4
Format settings, GOP : N=1
Codec ID : FFV1
Duration : 4 s 380 ms
Bit rate mode : Variable
Bit rate : 487 Mb/s
Width : 1 920 pixels
Height : 1 440 pixels
Display aspect ratio : 4:3
Frame rate : 50.000 FPS
Color space : YUV
Chroma subsampling : 4:2:0
Bit depth : 10 bits
Scan type : Progressive
Compression mode : Lossless
Bits/(Pixel*Frame) : 3.521
Stream size : 254 MiB (100%)
coder_type : Range Coder
MaxSlicesCount : 4
ErrorDetectionType : Per slice
 
--------- ffv1 10bit без пайпа - Bit rate: 769 Mb/s ---------
 
ffmpeg "-hide_banner" "-i" "C:/vto/pushie-proba.avi" "-sws_flags" "spline+accurate_rnd+full_chroma_int" "-color_trc" "2" "-colorspace" "2" "-color_primaries" "2" "-filter_complex" "tvai_fi=model=chf-3:slowmo=1:rdt=-0.000001:fps=50:device=0:vram=1:instances=0,tvai_up=model=gcg-5:scale=0:w=1920:h=1440:device=0:vram=1:instances=0,scale=w=1920:h=1440:flags=lanczos:threads=0" "-c:v" "ffv1" "-pix_fmt" "yuv420p10le" "-slices" "4" "-slicecrc" "1" "-g" "1" "C:/vto/pushie-no-pipe.avi"
 
General
Complete name : C:\vto\pushie-no-pipe.avi
Format : AVI
Format/Info : Audio Video Interleave
File size : 402 MiB
Duration : 4 s 380 ms
Overall bit rate mode : Variable
Overall bit rate : 769 Mb/s
Frame rate : 50.000 FPS
Writing application : Lavf60.20.100
Video
ID : 0
Format : FFV1
Format version : Version 3.4
Format settings, GOP : N=1
Codec ID : FFV1
Duration : 4 s 380 ms
Bit rate mode : Variable
Bit rate : 769 Mb/s
Width : 1 920 pixels
Height : 1 440 pixels
Display aspect ratio : 4:3
Frame rate : 50.000 FPS
Color space : YUV
Chroma subsampling : 4:2:0
Bit depth : 10 bits
Scan type : Progressive
Compression mode : Lossless
Bits/(Pixel*Frame) : 5.564
Stream size : 402 MiB (100%)
coder_type : Range Coder
MaxSlicesCount : 4
ErrorDetectionType : Per slice
 
 
По скорости пайп чуть быстрее:
 
пайп: frame=  219 fps=1.3 q=-0.0 Lsize=  260222kB time=00:00:04.38 bitrate=488929.9kbits/s speed=0.0257x
 
не-пайп: frame=  219 fps=1.2 q=-0.0 Lsize=  411232kB time=00:00:04.38 bitrate=769135.6kbits/s speed=0.0247x
 
Спрятать


 
Для идеальности эксперимента попробуйте заменить C:\avs2\ffmpeg_32.exe на ffmpeg.exe (который из топаза).
shurik_pronkin
Любитель
  • Total Posts : 64
  • Scores: 2
  • Joined: 2024/01/12 13:04:34
  • Status: offline
Re: Улучшение изображения с помощью нейросетей 2024/02/07 14:05:44 (ссылка)
0
У меня тоже подозрения не на сам пайп, а на версию или битность (?) ffmpeg.
shurik_pronkin
Любитель
  • Total Posts : 64
  • Scores: 2
  • Joined: 2024/01/12 13:04:34
  • Status: offline
Re: Улучшение изображения с помощью нейросетей 2024/02/07 14:28:14 (ссылка)
0
--------- ffv1 10bit с пайпом - ffmpeg топазовский - Bit rate: 487 Mb/s (!) ---------
 
ffmpeg "-hide_banner" "-i" "C:/vto/pushie-proba.avi" "-sws_flags" "spline+accurate_rnd+full_chroma_int" "-color_trc" "2" "-colorspace" "2" "-color_primaries" "2" "-filter_complex" "tvai_fi=model=chf-3:slowmo=1:rdt=-0.000001:fps=50:device=0:vram=1:instances=0,tvai_up=model=gcg-5:scale=0:w=1920:h=1440:device=0:vram=1:instances=0,scale=w=1920:h=1440:flags=lanczos:threads=0" "-strict" "-1" "-pix_fmt" "yuv420p" "-f" "yuv4mpegpipe" "-" | "C:\avs2\ffmpeg_64_tpz_411.exe" -nostdin -y -f yuv4mpegpipe -i - -c:v ffv1 -slicecrc 1 -g 1 -slices 4 -pix_fmt yuv420p10le "C:/vto/pushie-no-pipe-2.avi"
 
General
Complete name : C:\vto\pushie-no-pipe-2.avi
Format : AVI
Format/Info : Audio Video Interleave
File size : 254 MiB
Duration : 4 s 380 ms
Overall bit rate mode : Variable
Overall bit rate : 487 Mb/s
Frame rate : 50.000 FPS
Writing application : Lavf60.20.100
Video
ID : 0
Format : FFV1
Format version : Version 3.4
Format settings, GOP : N=1
Codec ID : FFV1
Duration : 4 s 380 ms
Bit rate mode : Variable
Bit rate : 487 Mb/s
Width : 1 920 pixels
Height : 1 440 pixels
Display aspect ratio : 4:3
Frame rate : 50.000 FPS
Color space : YUV
Chroma subsampling : 4:2:0
Bit depth : 10 bits
Scan type : Progressive
Compression mode : Lossless
Bits/(Pixel*Frame) : 3.521
Stream size : 254 MiB (100%)
coder_type : Range Coder
MaxSlicesCount : 4
ErrorDetectionType : Per slice
 
frame=  219 fps=1.3 q=-0.0 Lsize=  260222kB time=00:00:04.38 bitrate=486697.4kbits/s speed=0.026x
 
Версия и битность ffmpeg  оказалась ни при чем. Что-то в самом пайпе  или топазовском внутреннем хозяйстве
post edited by shurik_pronkin - 2024/02/07 14:41:34
shurik_pronkin
Любитель
  • Total Posts : 64
  • Scores: 2
  • Joined: 2024/01/12 13:04:34
  • Status: offline
Re: Улучшение изображения с помощью нейросетей 2024/02/07 14:43:39 (ссылка)
-1 (1)
MartinWest
shurik_pronkin
 на ВТО (VTO) в свой раздел.


Это что такое?




 
Это такой форум в интернете есть. Называется "Все Тут Online" = ВТО
TOPAZAVR
Любитель
  • Total Posts : 288
  • Scores: 154
  • Joined: 2022/10/15 13:18:25
  • Status: offline
Re: Улучшение изображения с помощью нейросетей 2024/02/07 15:02:09 (ссылка)
+1 (1)
shurik_pronkin
Спойлер

--------- ffv1 10bit с пайпом - ffmpeg топазовский - Bit rate: 487 Mb/s (!) ---------
 
ffmpeg "-hide_banner" "-i" "C:/vto/pushie-proba.avi" "-sws_flags" "spline+accurate_rnd+full_chroma_int" "-color_trc" "2" "-colorspace" "2" "-color_primaries" "2" "-filter_complex" "tvai_fi=model=chf-3:slowmo=1:rdt=-0.000001:fps=50:device=0:vram=1:instances=0,tvai_up=model=gcg-5:scale=0:w=1920:h=1440:device=0:vram=1:instances=0,scale=w=1920:h=1440:flags=lanczos:threads=0" "-strict" "-1" "-pix_fmt" "yuv420p" "-f" "yuv4mpegpipe" "-" | "C:\avs2\ffmpeg_64_tpz_411.exe" -nostdin -y -f yuv4mpegpipe -i - -c:v ffv1 -slicecrc 1 -g 1 -slices 4 -pix_fmt yuv420p10le "C:/vto/pushie-no-pipe-2.avi"
 
General
Complete name : C:\vto\pushie-no-pipe-2.avi
Format : AVI
Format/Info : Audio Video Interleave
File size : 254 MiB
Duration : 4 s 380 ms
Overall bit rate mode : Variable
Overall bit rate : 487 Mb/s
Frame rate : 50.000 FPS
Writing application : Lavf60.20.100
Video
ID : 0
Format : FFV1
Format version : Version 3.4
Format settings, GOP : N=1
Codec ID : FFV1
Duration : 4 s 380 ms
Bit rate mode : Variable
Bit rate : 487 Mb/s
Width : 1 920 pixels
Height : 1 440 pixels
Display aspect ratio : 4:3
Frame rate : 50.000 FPS
Color space : YUV
Chroma subsampling : 4:2:0
Bit depth : 10 bits
Scan type : Progressive
Compression mode : Lossless
Bits/(Pixel*Frame) : 3.521
Stream size : 254 MiB (100%)
coder_type : Range Coder
MaxSlicesCount : 4
ErrorDetectionType : Per slice
 
frame=  219 fps=1.3 q=-0.0 Lsize=  260222kB time=00:00:04.38 bitrate=486697.4kbits/s speed=0.026x
 
Версия и битность ffmpeg  оказалась ни при чем. Что-то в самом пайпе  или топазовском внутреннем хозяйстве
Спрятать

 


 
Может попробовать заменить "-pix_fmt" "yuv420p" на "-pix_fmt" "yuv444p10".
Может картинка такая.
 

shurik_pronkin
Любитель
  • Total Posts : 64
  • Scores: 2
  • Joined: 2024/01/12 13:04:34
  • Status: offline
Re: Улучшение изображения с помощью нейросетей 2024/02/07 15:23:08 (ссылка)
-1 (1)
Оно :
 
ffmpeg "-hide_banner" "-i" "C:/vto/pushie-proba.avi" "-sws_flags" "spline+accurate_rnd+full_chroma_int" "-color_trc" "2" "-colorspace" "2" "-color_primaries" "2" "-filter_complex" "tvai_fi=model=chf-3:slowmo=1:rdt=-0.000001:fps=50:device=0:vram=1:instances=0,tvai_up=model=gcg-5:scale=0:w=1920:h=1440:device=0:vram=1:instances=0,scale=w=1920:h=1440:flags=lanczos:threads=0" "-strict" "-1" "-pix_fmt" "yuv444p10" "-f" "yuv4mpegpipe" "-" | "C:\avs2\ffmpeg_64_tpz_411.exe" -nostdin -y -f yuv4mpegpipe -i - -c:v ffv1 -slicecrc 1 -g 1 -slices 4 -pix_fmt yuv420p10le "C:/vto/pushie-no-pipe-2.avi"
 
General
Complete name : C:\vto\pushie-no-pipe-2.avi
Format : AVI
Format/Info : Audio Video Interleave
File size : 399 MiB
Duration : 4 s 380 ms
Overall bit rate mode : Variable
Overall bit rate : 764 Mb/s
Frame rate : 50.000 FPS
Writing application : Lavf60.20.100
Video
ID : 0
Format : FFV1
Format version : Version 3.4
Format settings, GOP : N=1
Codec ID : FFV1
Duration : 4 s 380 ms
Bit rate mode : Variable
Bit rate : 764 Mb/s
Width : 1 920 pixels
Height : 1 440 pixels
Display aspect ratio : 4:3
Frame rate : 50.000 FPS
Color space : YUV
Chroma subsampling : 4:2:0
Bit depth : 10 bits
Scan type : Progressive
Compression mode : Lossless
Bits/(Pixel*Frame) : 5.523
Stream size : 399 MiB (100%)
coder_type : Range Coder
MaxSlicesCount : 4
ErrorDetectionType : Per slice
MartinWest
Любитель
  • Total Posts : 382
  • Scores: 148
  • Joined: 2020/08/19 10:35:55
  • Status: offline
Re: Улучшение изображения с помощью нейросетей 2024/02/07 15:24:26 (ссылка)
0 (2)
Ребята ! поймите Меня конечно правильно НО!... 90 % Инфы для меня чюждо! Но! я не просто так тут обитаю :) как говориться тема в тему :) !  смотрю наблюдаю ..... не кого не учу носом не тыкаю.....Так сказать Я просто наблюдатель .... В грудь себя я не стучу .... Как говориться я только учусь! :)  ... За плечами тонны видосов море оцифровок ... кой никакой опыт за плечами...! :) Для себя много чего делаю ... в сеть гружу ... так сказать по желанию! Я не на что не претендую есть хорошиее ребята и чистят хорошо ..... Как говориться Комюнити! ....PS А ведь столько фильмов наших?!!!! (Берём фильмы кто не брал и не чистил).... Как Говориться БатЭл! :)  КТО Кого! :)
shurik_pronkin
Любитель
  • Total Posts : 64
  • Scores: 2
  • Joined: 2024/01/12 13:04:34
  • Status: offline
Re: Улучшение изображения с помощью нейросетей 2024/02/07 15:24:57 (ссылка)
0
TOPAZAVR, спасибо! 
 
MartinWest
Любитель
  • Total Posts : 382
  • Scores: 148
  • Joined: 2020/08/19 10:35:55
  • Status: offline
Re: Улучшение изображения с помощью нейросетей 2024/02/07 15:29:32 (ссылка)
-1 (1)
shurik_pronkin
Выложил Старший сын (Виталий Мельников) - 1975 на ВТО (VTO) в свой раздел.


Уважаемый может вы ответите??? что это ВТО (VTO) .... и ссылку если можно! :(
shurik_pronkin
Любитель
  • Total Posts : 64
  • Scores: 2
  • Joined: 2024/01/12 13:04:34
  • Status: offline
Re: Улучшение изображения с помощью нейросетей 2024/02/07 15:35:52 (ссылка)
-1 (1)
MartinWest
shurik_pronkin
Выложил Старший сын (Виталий Мельников) - 1975 на ВТО (VTO) в свой раздел.


Уважаемый может вы ответите??? что это ВТО (VTO) .... и ссылку если можно! :(





Это такой старинный форум в интернете есть. Называется "Все Тут Online" = ВТО. По названию в поисковике можно найти.
 
Прямые ссылки на другие ресурсы же нельзя. Или можно?
 
TOPAZAVR
Любитель
  • Total Posts : 288
  • Scores: 154
  • Joined: 2022/10/15 13:18:25
  • Status: offline
Re: Улучшение изображения с помощью нейросетей 2024/02/07 15:37:32 (ссылка)
+2 (2)
MartinWest
shurik_pronkin
Выложил Старший сын (Виталий Мельников) - 1975 на ВТО (VTO) в свой раздел.


Уважаемый может вы ответите??? что это ВТО (VTO) .... и ссылку если можно! :(


 
Платный ресурс https׃ /  / www . vsetutonline . com / forum / showthread.php?t=127006
MartinWest
Любитель
  • Total Posts : 382
  • Scores: 148
  • Joined: 2020/08/19 10:35:55
  • Status: offline
Re: Улучшение изображения с помощью нейросетей 2024/02/07 15:40:32 (ссылка)
-1 (1)
shurik_pronkin
MartinWest
shurik_pronkin
Выложил Старший сын (Виталий Мельников) - 1975 на ВТО (VTO) в свой раздел.


Уважаемый может вы ответите??? что это ВТО (VTO) .... и ссылку если можно! :(





Это такой старинный форум в интернете есть. Называется "Все Тут Online" = ВТО. По названию в поисковике можно найти.
 
Прямые ссылки на другие ресурсы же нельзя. Или можно?
 


уВАЖАЕМЫЙ ПОЖАЛУЙ Я ВАМ ПОСТАВЛЮ МИНУС - Я должен шариться  по сайту и искать вашу раздачу? Ну прикольно Да!?
shurik_pronkin
Любитель
  • Total Posts : 64
  • Scores: 2
  • Joined: 2024/01/12 13:04:34
  • Status: offline
Re: Улучшение изображения с помощью нейросетей 2024/02/07 15:50:44 (ссылка)
-1 (1)
MartinWest
 
уВАЖАЕМЫЙ ПОЖАЛУЙ Я ВАМ ПОСТАВЛЮ МИНУС - Я должен шариться  по сайту и искать вашу раздачу? Ну прикольно Да!?


 
Так Вы уже четыре минуса поставили  Интересная у Вас позиция минусить всех подряд  Хотя дело Ваше.
 
Здесь прямые ссылки на ДРУГИЕ ресурсы разрешены?
post edited by shurik_pronkin - 2024/02/07 15:58:18
MartinWest
Любитель
  • Total Posts : 382
  • Scores: 148
  • Joined: 2020/08/19 10:35:55
  • Status: offline
Re: Улучшение изображения с помощью нейросетей 2024/02/07 15:58:23 (ссылка)
-1 (1)
shurik_pronkin
Интересная у Вас позиция минусить всех подряд  Хотя дело Ваше.
 
Здесь прямые ссылки на ДРУГИЕ ресурсы разрешены?


Если вы что то сделали заливайте на человеческий обменник или трекер! Мы не пинкертоны что бы ваши файлы искать!  :)
shurik_pronkin
Любитель
  • Total Posts : 64
  • Scores: 2
  • Joined: 2024/01/12 13:04:34
  • Status: offline
Re: Улучшение изображения с помощью нейросетей 2024/02/07 16:01:28 (ссылка)
0
Я понял. Вы новеньких болезненно принимаете.  Понимаю.
post edited by shurik_pronkin - 2024/02/07 16:25:15
TOPAZAVR
Любитель
  • Total Posts : 288
  • Scores: 154
  • Joined: 2022/10/15 13:18:25
  • Status: offline
Re: Улучшение изображения с помощью нейросетей 2024/02/07 16:19:25 (ссылка)
+2 (2)
MartinWest
За бортом / Overboard (1987) BDRip [H.264/720] [Handmade upscale AI]
На Бабочке!


 
Поскольку нет ссылки на исходник и нет параметров обработки, то предположу по картинке, что шум убирали в топазе увеличив noise=???.
Кажется, слишком. Например, на левом краю полотенце "замылено".
Мне больше нравится убирать крупнокалиберный шум плёнки фильтром RemoveSpotsMC().
Вот мой пример "Overboard" (RemoveSpotsMC()  prob-4  noise=-0.2): https://rebrand.ly/overboard1987. Сравнение было стало.
файлы для моего пайпа
▼ файлы для моего пайпа
 
ffmpeg32.avs
SetWorkingDir("C:\Programs\tvaiplus") # tvaiplus (ffmpeg32) directory 

SetMemoryMax(4096)
SetMaxCPU("avx2") # avx
LoadPlugin("common\avss.dll")
LoadPlugin("common\nnedi3_AVX2.dll") # nnedi3_AVX.dll
LoadPlugin("common\mvtools2.dll")
LoadPlugin("common\masktools2.dll")
LoadPlugin("common\VerticalCleanerS.dll")
LoadPlugin("common\RgTools.dll")
LoadPlugin("common\fft3dfilter.dll")
Import("common\avss.avsi")
Import("common\Zs_RF_Shared.avsi")
LoadPlugin("GetSystemEnv\GetSystemEnv.dll")
input_file=GetSystemEnv("input_file")
DirectShowSource2(input_file, fps=23.976, preroll=15, lavs="L3", lavd="L3")
trim(64553,65391)
LoadPlugin("RemoveDirt\RemoveDirt.dll")
Import("RemoveDirt\RemoveDirtMC.avs")
Import("RemoveDirt\RemoveSpotsMC.avs")
RemoveSpotsMC()

tvai.txt
tvai_up=model=prob-4:scale=0:w=1920:h=1080:preblur=0:noise=-0.2:details=0:halo=0:blur=0:compression=0:estimate=8:device=0:vram=1:instances=0

colorsp.txt
bt709

Спрятать

 
Page: << < ..146147148149150.. > >> Showing page 148 of 162
Jump to:
© 2024 APG vNext Commercial Version 5.5