Правила | Zavvi | Amazon.com Amazon.ca Amazon.co.uk Amazon.de Amazon.fr Amazon.it Amazon.es | OZON.ru

Helpful ReplyHot!Импорт с русской локализацией (обсуждение), том IV

Page: 12345.. > >> Showing page 1 of 20
Author
prjanick
Меценат
  • Total Posts : 7201
  • Scores: 14499
  • Joined: 2009/12/07 21:14:03
  • Location: СПб
  • Status: offline
2018/02/06 12:22:58 (ссылка)
0

Импорт с русской локализацией (обсуждение), том IV

Это перезапуск предыдущей темы.

Просьба обсуждать здесь вопросы по поводу наличия русского языка на иностранных изданиях, новинки, и т.п.

Полный список изданий с русским языком находится здесь
.
Сокращенный список - только изданий с русским языком, не издававшихся в России, находится здесь.
#1
prjanick
Меценат
  • Total Posts : 7201
  • Scores: 14499
  • Joined: 2009/12/07 21:14:03
  • Location: СПб
  • Status: offline
Re: Импорт с русской локализацией (обсуждение), том IV 2018/02/06 13:48:59 (ссылка)
+3 (3)
NormanZone A?Sound: Eng DTS HD MA 5.1; Subs: Eng, Rus (Only)
[локализация представлена только русскими субтитрами]
USA | France | Spain | Japan | Czech | Scandinavia
 
За гранью реальностиZone B?Sound: Rus DTS HD MA 5.1
Germany
 
Snowman, TheZone ABCSound: Eng DTS HD MA 7.1, Rus DTS 5.1; Subs: Eng, Rus
Poland | Greece | Hungary | Korea | Thailand | Turkey | Taiwan (Steelbook)
 
Thor: Ragnarok 3DZone ABCSound: Eng DTS HD MA 7.1, Rus DD 5.1; Subs: Eng, Rus
Italy | Czech | Slovakia | Poland | Spain ?
 
Justice LeagueZone ABCSound: Eng DTS HD MA 7.1, Rus DD 5.1; Subs: Eng, Rus
Hungary (3D+2D) | Turkey (3D+2D) | Scandinavia (2D) | Italy (3D) | Czech (3D) | Slovakia (3D) | Poland (3D) | Spain (3D) ? | France (3D) ?
 
Happy Death DayZone ABCSound: Eng DTS HD MA 5.1, Rus DTS 5.1; Subs: Eng, Rus
Poland | Hungary | Korea | Greece | Thailand | Czech | Slovakia | Taiwan
 
Daddy`s Home 2Zone ABCSound: Eng Atmos, Rus DD 5.1; Subs: Eng, Ukr, Rus
Poland | France | Germany | Italy | Japan | Czech | Slovakia | Taiwan | Greece | Hungary | Korea | Scandinavia
 
Задания особой важности: Операция «Тайфун»Zone B?Sound: Rus
France
#2
b2zer
Меценат
  • Total Posts : 2026
  • Scores: 1228
  • Joined: 2014/08/28 15:56:57
  • Status: offline
Re: Импорт с русской локализацией (обсуждение), том IV 2018/02/06 14:33:27 (ссылка)
0
Никому не попадалась инфа по 2D изданию Тора? Что-то все что знал перерыл уже. 
#3
voovaz
Ценитель
  • Total Posts : 918
  • Scores: 959
  • Joined: 2015/09/15 11:14:25
  • Status: offline
Re: Импорт с русской локализацией (обсуждение), том IV 2018/02/07 00:41:03 (ссылка)
+2 (2)
Geostorm
DISC INFO:

Disc Title:
Disc Size: 36,351,737,039 bytes
Protection: AACS
BD-Java: No
BDInfo: 0.5.8

PLAYLIST REPORT:

Name: 00100.MPLS
Length: 1:49:07.165 (h:m:s.ms)
Size: 33,438,547,968 bytes
Total Bitrate: 40.86 Mbps

VIDEO:

Codec Bitrate Description
----- ------- -----------
MPEG-4 AVC Video 29891 kbps 1080p / 23.976 fps / 16:9 / High Profile 4.1

AUDIO:

Codec Language Bitrate Description
----- -------- ------- -----------
DTS-HD Master Audio English 3928 kbps 5.1 / 48 kHz / 3928 kbps / 24-bit (DTS Core: 5.1 / 48 kHz / 1509 kbps / 24-bit)
Dolby Digital Audio English 448 kbps 5.1 / 48 kHz / 448 kbps / DN -4dB
Dolby Digital Audio Czech 448 kbps 5.1 / 48 kHz / 448 kbps / DN -4dB
Dolby Digital Audio Hungarian 448 kbps 5.1 / 48 kHz / 448 kbps / DN -4dB
Dolby Digital Audio Polish 448 kbps 5.1 / 48 kHz / 448 kbps / DN -4dB
Dolby Digital Audio Russian 448 kbps 5.1 / 48 kHz / 448 kbps / DN -4dB
Dolby Digital Audio Tamil 448 kbps 5.1 / 48 kHz / 448 kbps / DN -4dB
Dolby Digital Audio Telugu 448 kbps 5.1 / 48 kHz / 448 kbps / DN -4dB
Dolby Digital Audio Thai 448 kbps 5.1 / 48 kHz / 448 kbps / DN -4dB
Dolby Digital Audio Turkish 448 kbps 5.1 / 48 kHz / 448 kbps / DN -4dB

SUBTITLES:

Codec Language Bitrate Description
----- -------- ------- -----------
Presentation Graphics English 42.811 kbps
Presentation Graphics Chinese 33.501 kbps
Presentation Graphics Chinese 41.869 kbps
Presentation Graphics Chinese 33.632 kbps
Presentation Graphics Korean 23.378 kbps
Presentation Graphics Arabic 20.610 kbps
Presentation Graphics Bulgarian 36.866 kbps
Presentation Graphics Croatian 37.686 kbps
Presentation Graphics Czech 37.069 kbps
Presentation Graphics Estonian 35.707 kbps
Presentation Graphics Greek 38.834 kbps
Presentation Graphics Hebrew 31.373 kbps
Presentation Graphics Hungarian 33.877 kbps
Presentation Graphics Icelandic 36.222 kbps
Presentation Graphics Latvian 40.735 kbps
Presentation Graphics Lithuanian 41.664 kbps
Presentation Graphics Polish 30.903 kbps
Presentation Graphics Portuguese 38.251 kbps
Presentation Graphics Romanian 35.040 kbps
Presentation Graphics Russian 37.959 kbps
Presentation Graphics Slovenian 32.852 kbps
Presentation Graphics Thai 40.308 kbps
Presentation Graphics Turkish 39.063 kbps
Presentation Graphics Czech 1.404 kbps
Presentation Graphics Hungarian 1.679 kbps
Presentation Graphics Russian 1.089 kbps
Presentation Graphics Tamil 1.236 kbps
Presentation Graphics Telugu 1.049 kbps
Presentation Graphics Turkish 1.630 kbps

FILES:

Name Time In Length Size Total Bitrate
---- ------- ------ ---- -------------
00263.M2TS 0:00:00.000 1:49:07.165 33,438,547,968 40,859

#4
voovaz
Ценитель
  • Total Posts : 918
  • Scores: 959
  • Joined: 2015/09/15 11:14:25
  • Status: offline
Re: Импорт с русской локализацией (обсуждение), том IV 2018/02/07 19:12:07 (ссылка)
+2 (2)
Accident Man
Disc Title: 
Disc Size: 38,143,636,052 bytes
Protection: AACS
BD-Java: Yes
Playlist: 00001.MPLS
Size: 33,558,349,824 bytes
Length: 1:45:29.323
Total Bitrate: 42.42 Mbps

Video: MPEG-4 AVC Video / 27891 kbps / 1080p / 23.976 fps / 16:9 / High Profile 4.1
Audio: English / DTS-HD Master Audio / 5.1 / 48 kHz / 3776 kbps / 24-bit (DTS Core: 5.1 / 48 kHz / 1509 kbps / 24-bit)
Audio: French / DTS-HD Master Audio / 5.1 / 48 kHz / 3750 kbps / 24-bit (DTS Core: 5.1 / 48 kHz / 1509 kbps / 24-bit)
Audio: Italian / DTS-HD Master Audio / 5.1 / 48 kHz / 2300 kbps / 16-bit (DTS Core: 5.1 / 48 kHz / 1509 kbps / 16-bit)
Audio: Russian / Dolby Digital Audio / 5.1 / 48 kHz / 640 kbps
Audio: English / Dolby Digital Audio / 2.0 / 48 kHz / 192 kbps

Subtitle: English / 41.325 kbps
Subtitle: English / 38.375 kbps
Subtitle: English / 41.338 kbps
Subtitle: English / 38.391 kbps
Subtitle: Chinese / 33.724 kbps
Subtitle: Chinese / 31.094 kbps
Subtitle: Danish / 36.371 kbps
Subtitle: Estonian / 35.998 kbps
Subtitle: Finnish / 31.964 kbps
Subtitle: French / 26.397 kbps
Subtitle: Italian / 35.925 kbps
Subtitle: Korean / 28.323 kbps
Subtitle: Latvian / 32.151 kbps
Subtitle: Lithuanian / 32.750 kbps
Subtitle: Norwegian / 32.698 kbps
Subtitle: Portuguese / 35.336 kbps
Subtitle: Russian / 31.094 kbps
Subtitle: Spanish / 35.387 kbps
Subtitle: Spanish / 34.250 kbps
Subtitle: Swedish / 31.595 kbps
Subtitle: Thai / 34.251 kbps
Subtitle: English / 66.882 kbps
Subtitle: Chinese / 51.360 kbps
Subtitle: Italian / 56.781 kbps
Subtitle: Korean / 46.947 kbps
Subtitle: Portuguese / 61.374 kbps
Subtitle: Spanish / 57.649 kbps
Subtitle: Spanish / 55.690 kbps
Subtitle: Thai / 52.936 kbps

 
#5
voovaz
Ценитель
  • Total Posts : 918
  • Scores: 959
  • Joined: 2015/09/15 11:14:25
  • Status: offline
Re: Импорт с русской локализацией (обсуждение), том IV 2018/02/08 00:28:17 (ссылка)
+1 (1)
Geostorm 3D
DISC INFO:

Disc Title:
Disc Size: 39,439,187,130 bytes
Protection: AACS
BD-Java: No
Extras: Blu-ray 3D
BDInfo: 0.5.8

PLAYLIST REPORT:

Name: 00098.MPLS
Length: 1:49:07.165 (h:m:s.ms)
Size: 38,304,743,424 bytes
Total Bitrate: 46.80 Mbps

(*) Indicates included stream hidden by this playlist.

VIDEO:

Codec Bitrate Description
----- ------- -----------
MPEG-4 AVC Video 24987 kbps 1080p / 23.976 fps / 16:9 / High Profile 4.1
MPEG-4 MVC Video 11994 kbps

AUDIO:

Codec Language Bitrate Description
----- -------- ------- -----------
DTS-HD Master Audio English 3928 kbps 5.1 / 48 kHz / 3928 kbps / 24-bit (DTS Core: 5.1 / 48 kHz / 1509 kbps / 24-bit)
Dolby Digital Audio Hungarian 448 kbps 5.1 / 48 kHz / 448 kbps / DN -4dB
Dolby Digital Audio Polish 448 kbps 5.1 / 48 kHz / 448 kbps / DN -4dB
Dolby Digital Audio Russian 448 kbps 5.1 / 48 kHz / 448 kbps / DN -4dB
Dolby Digital Audio Thai 448 kbps 5.1 / 48 kHz / 448 kbps / DN -4dB
Dolby Digital Audio Turkish 448 kbps 5.1 / 48 kHz / 448 kbps / DN -4dB
* Dolby Digital Audio Japanese 448 kbps 5.1 / 48 kHz / 448 kbps / DN -4dB

SUBTITLES:

Codec Language Bitrate Description
----- -------- ------- -----------
* Presentation Graphics Japanese 38.984 kbps
Presentation Graphics English 42.812 kbps
Presentation Graphics Chinese 33.501 kbps
Presentation Graphics Korean 23.378 kbps
Presentation Graphics Hungarian 33.877 kbps
Presentation Graphics Polish 30.903 kbps
Presentation Graphics Russian 37.883 kbps
Presentation Graphics Thai 40.308 kbps
Presentation Graphics Turkish 39.063 kbps
Presentation Graphics Hungarian 1.662 kbps
Presentation Graphics Russian 1.121 kbps
Presentation Graphics Turkish 1.630 kbps
* Presentation Graphics Japanese 1.696 kbps

FILES:

Name Time In Length Size Total Bitrate
---- ------- ------ ---- -------------
00042.SSIF 0:00:00.000 1:49:07.165 38,304,743,424 46,805

#6
prjanick
Меценат
  • Total Posts : 7201
  • Scores: 14499
  • Joined: 2009/12/07 21:14:03
  • Location: СПб
  • Status: offline
Re: Импорт с русской локализацией (обсуждение), том IV 2018/02/08 13:51:24 (ссылка)
+3 (3)
Оказывается, фильм "Miles Ahead" выходил в Бельгии. Точного набора дорожек мне найти не удалось, но на этом релизе, естественно, есть французский. Т.е. это или такой же диск как в США, или такой же как в Австралии (а на нем, напомню, есть русский звук). Я больше склоняюсь ко второму варианту - к диску с европейскими языками на борту.
 
Так что, если кто-то сможет проверить/уточнить - было бы хорошо. Из Бельгии диск выцепить проще/дешевле/быстрее, чем из Австралии.
 

#7
bertuccio
Эксперт
  • Total Posts : 1519
  • Scores: 2110
  • Joined: 2012/04/13 22:05:26
  • Location: Paris
  • Status: offline
Re: Импорт с русской локализацией (обсуждение), том IV 2018/02/08 14:12:54 (ссылка)
+3 (3)
prjanick
 
Оказывается, фильм "Miles Ahead" выходил в Бельгии. Точного набора дорожек мне найти не удалось, но на этом релизе, естественно, есть французский. Т.е. это или такой же диск как в США, или такой же как в Австралии (а на нем, напомню, есть русский звук). Я больше склоняюсь ко второму варианту - к диску с европейскими языками на борту.
 
Так что, если кто-то сможет проверить/уточнить - было бы хорошо. Из Бельгии диск выцепить проще/дешевле/быстрее, чем из Австралии.
 

 
У меня есть диск из Австралии. На нем - голландские субтитры. Следовательно, это тот же диск, что продается в Бельгии.
Если интересен набор языков, то звук - французский, венгерский, польский, русский и турецкий.
Субтитры - арабские, болгарские, чешские, голландские, французские, греческие, венгерские, исландские, польские, румынские, русские, словацкие и турецкие.
#8
b2zer
Меценат
  • Total Posts : 2026
  • Scores: 1228
  • Joined: 2014/08/28 15:56:57
  • Status: offline
Re: Импорт с русской локализацией (обсуждение), том IV 2018/02/08 14:54:26 (ссылка)
0
А в чем простота покупки в Бельгии? Я покупал Джуманджи, но они не слали в РФ, пришлось окольными путями. 
#9
prjanick
Меценат
  • Total Posts : 7201
  • Scores: 14499
  • Joined: 2009/12/07 21:14:03
  • Location: СПб
  • Status: offline
Re: Импорт с русской локализацией (обсуждение), том IV 2018/02/08 15:23:00 (ссылка)
0
b2zer
А в чем простота покупки в Бельгии? Я покупал Джуманджи, но они не слали в РФ, пришлось окольными путями. 


Я думаю, что в Нидерландах и Бельгии не один магазин.
Например, https://www.platomania.nl - доставка 1-3 дисков в Россию стоит 8,5 евро. Чтобы найти этот магазин мне понадобилось 10 минут. Думаю, при желании можно найти и другие магазины, где диски подешевле.
#10
voovaz
Ценитель
  • Total Posts : 918
  • Scores: 959
  • Joined: 2015/09/15 11:14:25
  • Status: offline
Re: Импорт с русской локализацией (обсуждение), том IV 2018/02/08 22:18:38 (ссылка)
+2 (2)
Happy Death Day
DISC INFO:

Disc Title:
Disc Size: 37,177,806,417 bytes
Protection: AACS
BD-Java: Yes
BDInfo: 0.5.8

PLAYLIST REPORT:

Name: 00800.MPLS
Length: 1:36:11.390 (h:m:s.ms)
Size: 30,793,986,048 bytes
Total Bitrate: 42.69 Mbps

VIDEO:

Codec Bitrate Description
----- ------- -----------
MPEG-4 AVC Video 31991 kbps 1080p / 23.976 fps / 16:9 / High Profile 4.1

AUDIO:

Codec Language Bitrate Description
----- -------- ------- -----------
DTS-HD Master Audio English 3886 kbps 5.1 / 48 kHz / 3886 kbps / 24-bit (DTS Core: 5.1 / 48 kHz / 1509 kbps / 24-bit)
DTS Audio Spanish 768 kbps 5.1 / 48 kHz / 768 kbps / 24-bit
DTS Audio Portuguese 768 kbps 5.1 / 48 kHz / 768 kbps / 24-bit
DTS Audio Russian 768 kbps 5.1 / 48 kHz / 768 kbps / 24-bit
DTS Audio Hungarian 768 kbps 5.1 / 48 kHz / 768 kbps / 24-bit
DTS Audio Polish 768 kbps 5.1 / 48 kHz / 768 kbps / 24-bit

SUBTITLES:

Codec Language Bitrate Description
----- -------- ------- -----------
Presentation Graphics English 37.195 kbps
Presentation Graphics Spanish 26.997 kbps
Presentation Graphics Portuguese 26.829 kbps
Presentation Graphics Turkish 29.693 kbps
Presentation Graphics Russian 27.116 kbps
Presentation Graphics Czech 25.323 kbps
Presentation Graphics Hungarian 27.933 kbps
Presentation Graphics Polish 23.074 kbps
Presentation Graphics Thai 20.534 kbps
Presentation Graphics Chinese 18.046 kbps
Presentation Graphics Chinese 22.433 kbps
Presentation Graphics Indonesian 30.194 kbps
Presentation Graphics Korean 17.246 kbps
Presentation Graphics Greek 29.414 kbps
Presentation Graphics Bulgarian 23.296 kbps
Presentation Graphics Croatian 23.558 kbps
Presentation Graphics Estonian 23.075 kbps
Presentation Graphics Latvian 23.160 kbps
Presentation Graphics Lithuanian 29.659 kbps
Presentation Graphics Romanian 23.588 kbps
Presentation Graphics Slovenian 21.696 kbps
Presentation Graphics Spanish 1.168 kbps
Presentation Graphics Portuguese 1.085 kbps
Presentation Graphics Russian 0.844 kbps
Presentation Graphics Hungarian 0.599 kbps
Presentation Graphics Polish 0.751 kbps

FILES:

Name Time In Length Size Total Bitrate
---- ------- ------ ---- -------------
00800.M2TS 0:00:00.000 1:36:11.390 30,793,986,048 42,685

#11
voovaz
Ценитель
  • Total Posts : 918
  • Scores: 959
  • Joined: 2015/09/15 11:14:25
  • Status: offline
Re: Импорт с русской локализацией (обсуждение), том IV 2018/02/11 02:23:01 (ссылка)
+3 (3)
The Snowman
DISC INFO:

Disc Title:
Disc Size: 40,999,303,287 bytes
Protection: AACS
BD-Java: Yes
BDInfo: 0.5.8

PLAYLIST REPORT:

Name: 00800.MPLS
Length: 1:59:15.148 (h:m:s.ms)
Size: 35,291,430,912 bytes
Total Bitrate: 39.46 Mbps

VIDEO:

Codec Bitrate Description
----- ------- -----------
MPEG-4 AVC Video 27053 kbps 1080p / 23.976 fps / 16:9 / High Profile 4.1

AUDIO:

Codec Language Bitrate Description
----- -------- ------- -----------
DTS-HD Master Audio English 4976 kbps 7.1 / 48 kHz / 4976 kbps / 24-bit (DTS Core: 5.1 / 48 kHz / 1509 kbps / 24-bit)
DTS Audio Spanish 768 kbps 5.1 / 48 kHz / 768 kbps / 24-bit
DTS Audio Portuguese 768 kbps 5.1 / 48 kHz / 768 kbps / 24-bit
DTS Audio Russian 768 kbps 5.1 / 48 kHz / 768 kbps / 24-bit
DTS Audio Czech 768 kbps 5.1 / 48 kHz / 768 kbps / 24-bit
DTS Audio Hungarian 768 kbps 5.1 / 48 kHz / 768 kbps / 24-bit
DTS Audio Polish 768 kbps 5.1 / 48 kHz / 768 kbps / 24-bit

SUBTITLES:

Codec Language Bitrate Description
----- -------- ------- -----------
Presentation Graphics English 27.642 kbps
Presentation Graphics Spanish 22.821 kbps
Presentation Graphics Portuguese 23.223 kbps
Presentation Graphics Turkish 23.913 kbps
Presentation Graphics Russian 21.619 kbps
Presentation Graphics Czech 18.826 kbps
Presentation Graphics Hungarian 22.658 kbps
Presentation Graphics Polish 20.951 kbps
Presentation Graphics Thai 19.426 kbps
Presentation Graphics Chinese 16.767 kbps
Presentation Graphics Chinese 20.066 kbps
Presentation Graphics Chinese 18.522 kbps
Presentation Graphics Indonesian 23.863 kbps
Presentation Graphics Korean 14.117 kbps
Presentation Graphics Greek 25.509 kbps
Presentation Graphics Bulgarian 20.632 kbps
Presentation Graphics Croatian 20.337 kbps
Presentation Graphics Estonian 20.360 kbps
Presentation Graphics Latvian 20.830 kbps
Presentation Graphics Lithuanian 23.341 kbps
Presentation Graphics Romanian 20.282 kbps
Presentation Graphics Slovenian 18.480 kbps
Presentation Graphics Spanish 1.485 kbps
Presentation Graphics Portuguese 1.756 kbps
Presentation Graphics Russian 0.703 kbps
Presentation Graphics Czech 0.650 kbps
Presentation Graphics Hungarian 0.657 kbps

FILES:

Name Time In Length Size Total Bitrate
---- ------- ------ ---- -------------
00800.M2TS 0:00:00.000 1:59:15.148 35,291,430,912 39,459

#12
bertuccio
Эксперт
  • Total Posts : 1519
  • Scores: 2110
  • Joined: 2012/04/13 22:05:26
  • Location: Paris
  • Status: offline
Re: Импорт с русской локализацией (обсуждение), том IV 2018/02/12 11:04:00 (ссылка)
#13
prjanick
Меценат
  • Total Posts : 7201
  • Scores: 14499
  • Joined: 2009/12/07 21:14:03
  • Location: СПб
  • Status: offline
Re: Импорт с русской локализацией (обсуждение), том IV 2018/02/12 14:17:46 (ссылка)
+6 (6)
Three Billboards Outside Ebbing, MissouriZone ABCSound: Eng DTS HD MA 5.1, Rus DTS 5.1; Subs: Eng, Ukr, Rus
USA | Czech | Slovakia | Poland | Hungary | Thailand | Korea | Hong Kong | Turkey
 
Professor Marston and the Wonder Women - кроме Германии будет и в Скандинавии
#14
prjanick
Меценат
  • Total Posts : 7201
  • Scores: 14499
  • Joined: 2009/12/07 21:14:03
  • Location: СПб
  • Status: offline
Re: Импорт с русской локализацией (обсуждение), том IV 2018/02/12 16:45:38 (ссылка)
+4 (4)
Goodbye Cristopher RobinZone ABCSound: Eng DTS HD MA 5.1, Ukr DD 5.1, Rus DTS 5.1; Subs: Eng, Ukr, Rus
Spain | France | Germany | Italy | Japan | Scandinavia
#15
bertuccio
Эксперт
  • Total Posts : 1519
  • Scores: 2110
  • Joined: 2012/04/13 22:05:26
  • Location: Paris
  • Status: offline
Re: Импорт с русской локализацией (обсуждение), том IV 2018/02/14 00:00:17 (ссылка)
+2 (2)
Полное собрание фильмов Андрея Звягинцева во Франции:
 
https://www.amazon.fr/Andrei-Zviaguintsev-Blu-ray-Aleksey-Rozin/dp/B077ZHB4ZL/
 
 
#16
bertuccio
Эксперт
  • Total Posts : 1519
  • Scores: 2110
  • Joined: 2012/04/13 22:05:26
  • Location: Paris
  • Status: offline
Re: Импорт с русской локализацией (обсуждение), том IV 2018/02/14 23:59:00 (ссылка)
+3 (3)
prjanick
 
 
Justice LeagueZone ABCSound: Eng DTS HD MA 7.1, Rus DD 5.1; Subs: Eng, Rus
Hungary (3D+2D) | Turkey (3D+2D) | Scandinavia (2D) | Italy (3D) | Czech (3D) | Slovakia (3D) | Poland (3D) | Spain (3D) ? | France (3D) ?
 



Уточнение информации от чешского издателя: 
http://www.magicbox.cz/blu-ray/liga-spravedlnosti-2bd-3d-2d-digibook
 
2D+3D  будет еще в Чехии.
 
В Испании и Франции 3D не будет. Испанский язык для Латинской Америки, а французский для Канады.
 
3D с русским будет, соответственно, в США.
 
Кроме диджибука, в Чехии будет и стилбук 2D+3D:
http://www.magicbox.cz/blu-ray/liga-spravedlnosti-2bd-3d-2d-steelbook
 
#17
voovaz
Ценитель
  • Total Posts : 918
  • Scores: 959
  • Joined: 2015/09/15 11:14:25
  • Status: offline
Re: Импорт с русской локализацией (обсуждение), том IV 2018/02/15 08:06:51 (ссылка)
+4 (4)
Three Billboards Outside Ebbing Missouri
DISC INFO:

Disc Title:
Disc Size: 46,332,732,236 bytes
Protection: AACS
BD-Java: Yes
BDInfo: 0.5.8.7 (compatible layout created by DVDFab 10.0.7.6)

PLAYLIST REPORT:

Name: 00800.MPLS
Length: 1:55:20.830 (h:m:s.ms)
Size: 33,982,722,048 bytes
Total Bitrate: 39.28 Mbps

VIDEO:

Codec Bitrate Description
----- ------- -----------
MPEG-4 AVC Video 27218 kbps 1080p / 23.976 fps / 16:9 / High Profile 4.1 /

AUDIO:

Codec Language Bitrate Description
----- -------- ------- -----------
DTS-HD Master Audio English 3625 kbps 5.1 / 48 kHz / 3625 kbps / 24-bit (DTS Core: 5.1 / 48 kHz / 1509 kbps / 24-bit)
Dolby Digital Audio English 448 kbps 5.1 / 48 kHz / 448 kbps
Dolby Digital Audio Spanish 448 kbps 5.1 / 48 kHz / 448 kbps
Dolby Digital Audio French 448 kbps 5.1 / 48 kHz / 448 kbps
DTS Audio Russian 768 kbps 5.1 / 48 kHz / 768 kbps / 24-bit
Dolby Digital Audio Czech 448 kbps 5.1 / 48 kHz / 448 kbps
Dolby Digital Audio Hindi 448 kbps 5.1 / 48 kHz / 448 kbps
Dolby Digital Audio Hungarian 448 kbps 5.1 / 48 kHz / 448 kbps
Dolby Digital Audio Polish 448 kbps 5.1 / 48 kHz / 448 kbps
Dolby Digital Audio Thai 448 kbps 5.1 / 48 kHz / 448 kbps
Dolby Digital Audio Turkish 448 kbps 5.1 / 48 kHz / 448 kbps
Dolby Digital Audio Ukrainian 448 kbps 5.1 / 48 kHz / 448 kbps

SUBTITLES:

Codec Language Bitrate Description
----- -------- ------- -----------
Presentation Graphics English 47.06 kbps
Presentation Graphics Spanish 34.91 kbps
Presentation Graphics French 36.269 kbps
Presentation Graphics French 0.276 kbps
Presentation Graphics Russian 32.939 kbps
Presentation Graphics Arabic 18.666 kbps
Presentation Graphics Bulgarian 33.755 kbps
Presentation Graphics Chinese 24.674 kbps
Presentation Graphics Croatian 32.118 kbps
Presentation Graphics Czech 30.055 kbps
Presentation Graphics Estonian 35.604 kbps
Presentation Graphics Greek 35.472 kbps
Presentation Graphics Hebrew 23.403 kbps
Presentation Graphics Hindi 29.024 kbps
Presentation Graphics Hungarian 32.762 kbps
Presentation Graphics Icelandic 33.534 kbps
Presentation Graphics Indonesian 38.672 kbps
Presentation Graphics Korean 18.934 kbps
Presentation Graphics Latvian 35.169 kbps
Presentation Graphics Lithuanian 32.926 kbps
Presentation Graphics Malay 39.021 kbps
Presentation Graphics Chinese 25.205 kbps
Presentation Graphics Polish 27.802 kbps
Presentation Graphics Portuguese 36.167 kbps
Presentation Graphics Romanian 30.148 kbps
Presentation Graphics Serbian 29.791 kbps
Presentation Graphics Slovak 30.759 kbps
Presentation Graphics Slovenian 29.747 kbps
Presentation Graphics Thai 26.185 kbps
Presentation Graphics Turkish 35.88 kbps
Presentation Graphics Ukrainian 33.241 kbps
Presentation Graphics Vietnamese 37.572 kbps

#18
voovaz
Ценитель
  • Total Posts : 918
  • Scores: 959
  • Joined: 2015/09/15 11:14:25
  • Status: offline
Re: Импорт с русской локализацией (обсуждение), том IV 2018/02/15 16:31:02 (ссылка)
0
Goodbye Christopher Robin
DISC INFO:

Disc Title:
Disc Size: 41 021 333 370 bytes
Protection: AACS
BD-Java: Yes
BDInfo: 0.5.8

PLAYLIST REPORT:

Name: 00800.MPLS
Length: 1:47:00.664 (h:m:s.ms)
Size: 34 810 048 512 bytes
Total Bitrate: 43,37 Mbps

(*) Indicates included stream hidden by this playlist.

VIDEO:

Codec Bitrate Description
----- ------- -----------
MPEG-4 AVC Video 29638 kbps 1080p / 23,976 fps / 16:9 / High Profile 4.1

AUDIO:

Codec Language Bitrate Description
----- -------- ------- -----------
DTS-HD Master Audio English 3529 kbps 5.1 / 48 kHz / 3529 kbps / 24-bit (DTS Core: 5.1 / 48 kHz / 1509 kbps / 24-bit)
Dolby Digital Audio English 448 kbps 5.1 / 48 kHz / 448 kbps
Dolby Digital Audio Spanish 448 kbps 5.1 / 48 kHz / 448 kbps
DTS Audio French 768 kbps 5.1 / 48 kHz / 768 kbps / 24-bit
DTS Audio Spanish 768 kbps 5.1 / 48 kHz / 768 kbps / 24-bit
DTS Audio German 768 kbps 5.1 / 48 kHz / 768 kbps / 24-bit
DTS Audio Italian 768 kbps 5.1 / 48 kHz / 768 kbps / 24-bit
* DTS Audio Japanese 768 kbps 5.1 / 48 kHz / 768 kbps / 24-bit
DTS Audio Russian 768 kbps 5.1 / 48 kHz / 768 kbps / 24-bit
Dolby Digital Audio Ukrainian 448 kbps 5.1 / 48 kHz / 448 kbps
Dolby Digital Audio English 224 kbps 2.0 / 48 kHz / 224 kbps

SUBTITLES:

Codec Language Bitrate Description
----- -------- ------- -----------
* Presentation Graphics Japanese 22,251 kbps
Presentation Graphics English 44,100 kbps
* Presentation Graphics Japanese 0,589 kbps
Presentation Graphics Spanish 36,245 kbps
Presentation Graphics French 35,876 kbps
Presentation Graphics Spanish 33,709 kbps
Presentation Graphics Danish 33,828 kbps
Presentation Graphics Dutch 31,843 kbps
Presentation Graphics Finnish 33,361 kbps
Presentation Graphics German 37,524 kbps
Presentation Graphics Italian 36,560 kbps
Presentation Graphics Norwegian 35,841 kbps
Presentation Graphics Russian 35,767 kbps
Presentation Graphics Swedish 34,639 kbps
Presentation Graphics Arabic 19,781 kbps
Presentation Graphics Estonian 34,460 kbps
Presentation Graphics Latvian 35,519 kbps
Presentation Graphics Lithuanian 36,044 kbps
Presentation Graphics Ukrainian 36,783 kbps
Presentation Graphics English 77,438 kbps
Presentation Graphics French 67,146 kbps
Presentation Graphics Spanish 69,121 kbps
Presentation Graphics Danish 70,043 kbps
Presentation Graphics Dutch 69,246 kbps
Presentation Graphics Finnish 63,711 kbps
Presentation Graphics German 73,206 kbps
Presentation Graphics Italian 68,359 kbps
* Presentation Graphics Japanese 37,466 kbps
Presentation Graphics Norwegian 68,133 kbps
Presentation Graphics Russian 77,363 kbps
Presentation Graphics Swedish 70,797 kbps
Presentation Graphics German 0,728 kbps

#19
bertuccio
Эксперт
  • Total Posts : 1519
  • Scores: 2110
  • Joined: 2012/04/13 22:05:26
  • Location: Paris
  • Status: offline
Re: Импорт с русской локализацией (обсуждение), том IV 2018/02/15 16:42:54 (ссылка)
0
 
Мать и сын Александра Сокурова в Японии:
 
https://www.amazon.co.jp/1518701782&sr
 
 http://www.cdjapan.co.jp/product/IVBD-1163
post edited by bertuccio - 2018/02/15 17:37:37
#20
Page: 12345.. > >> Showing page 1 of 20
Jump to:
© 2018 APG vNext Commercial Version 5.5