Правила | Zavvi | Amazon.com Amazon.ca Amazon.co.uk Amazon.de Amazon.fr Amazon.it Amazon.es | OZON.ru

Helpful ReplyLockedИмпорт с русской локализацией (обсуждение), том III

Page: << < ..5152535455.. > >> Showing page 52 of 103
Author
voovaz
Эксперт
  • Total Posts : 1330
  • Scores: 2068
  • Joined: 2015/09/15 11:14:25
  • Status: offline
Re: Импорт с русской локализацией (обсуждение), том III 2016/09/29 21:01:32 (ссылка)
+2 (2)
THE_CONJURING_2
DISC INFO:

Disc Title: THE_CONJURING_2_HDCLUB
Disc Size: 39 486 809 973 bytes
Protection: AACS
BD-Java: Yes
BDInfo: 0.5.8

PLAYLIST REPORT:

Name: 00100.MPLS
Length: 2:13:52.733 (h:m:s.ms)
Size: 32 844 883 968 bytes
Total Bitrate: 32,71 Mbps

VIDEO:

Codec Bitrate Description
----- ------- -----------
MPEG-4 AVC Video 22539 kbps 1080p / 23,976 fps / 16:9 / High Profile 4.1

AUDIO:

Codec Language Bitrate Description
----- -------- ------- -----------
Dolby TrueHD Audio English 3987 kbps 7.1 / 48 kHz / 3987 kbps / 24-bit (AC3 Embedded: 5.1-EX / 48 kHz / 384 kbps / DN -4dB)
Dolby Digital Audio Czech 448 kbps 5.1 / 48 kHz / 448 kbps / DN -4dB
Dolby Digital Audio Hindi 448 kbps 5.1 / 48 kHz / 448 kbps / DN -4dB
Dolby Digital Audio Hungarian 448 kbps 5.1 / 48 kHz / 448 kbps / DN -4dB
Dolby Digital Audio Polish 448 kbps 5.1 / 48 kHz / 448 kbps / DN -4dB
Dolby Digital Audio Russian 448 kbps 5.1 / 48 kHz / 448 kbps / DN -4dB
Dolby Digital Audio Thai 448 kbps 5.1 / 48 kHz / 448 kbps / DN -4dB

SUBTITLES:

Codec Language Bitrate Description
----- -------- ------- -----------
Presentation Graphics English 31,552 kbps
Presentation Graphics Arabic 13,119 kbps
Presentation Graphics Bulgarian 22,659 kbps
Presentation Graphics Chinese 23,687 kbps
Presentation Graphics Chinese 25,930 kbps
Presentation Graphics Chinese 19,709 kbps
Presentation Graphics Croatian 23,582 kbps
Presentation Graphics Czech 22,614 kbps
Presentation Graphics Czech 0,764 kbps
Presentation Graphics Estonian 20,090 kbps
Presentation Graphics Hebrew 19,800 kbps
Presentation Graphics Hungarian 23,435 kbps
Presentation Graphics Hungarian 1,131 kbps
Presentation Graphics Korean 15,897 kbps
Presentation Graphics Latvian 21,933 kbps
Presentation Graphics Lithuanian 23,802 kbps
Presentation Graphics Polish 20,844 kbps
Presentation Graphics Portuguese 24,277 kbps
Presentation Graphics Romanian 22,731 kbps
Presentation Graphics Russian 21,790 kbps
Presentation Graphics Russian 0,833 kbps
Presentation Graphics Slovenian 20,004 kbps
Presentation Graphics Thai 23,148 kbps
Presentation Graphics Thai 1,330 kbps
Presentation Graphics Turkish 23,414 kbps

FILES:

Name Time In Length Size Total Bitrate
---- ------- ------ ---- -------------
00042.M2TS 0:00:00.000 2:13:52.733 32 844 883 968 32 711

prjanick
Editor
  • Total Posts : 8513
  • Scores: 16931
  • Joined: 2009/12/07 21:14:03
  • Location: СПб
  • Status: offline
Re: Импорт с русской локализацией (обсуждение), том III 2016/10/01 14:36:45 (ссылка)
+5 (5)
Taxi Driver (40th Anniversary Edition)
 
8 ноября в США выходит двухдисковик "Таксист" на Blu-ray, приуроченное к 40-летнему юбилею картины. Видим санкции в действии: на амазоне перечислена куча языков, но русского среди них нет. Между тем, на Blu-ray.com выложили макет задника, на котором явно видно - русский звук на диске будет!


bertuccio
Эксперт
  • Total Posts : 2380
  • Scores: 5197
  • Joined: 2012/04/13 22:05:26
  • Status: offline
Re: Импорт с русской локализацией (обсуждение), том III 2016/10/03 16:17:37 (ссылка)
+1 (1)
X-Men: Apocalypse 3D вышел в Прибалтике. Возможно, с русской локализацией:
 
http://www.apollo.ee/br-x-mehed-apokalupsis-2d-3d-blu-ray-combo.html
 
Нет ли у кого подтверждения?
EdgarsGer
Любитель
  • Total Posts : 198
  • Scores: 140
  • Joined: 2012/10/03 00:27:29
  • Location: Латвия
  • Status: offline
Re: Импорт с русской локализацией (обсуждение), том III 2016/10/03 17:23:16 (ссылка)
0
Сегодня уже не достал их в офисе.Завтра узнаю
post edited by EdgarsGer - 2016/10/03 17:29:28
bertuccio
Эксперт
  • Total Posts : 2380
  • Scores: 5197
  • Joined: 2012/04/13 22:05:26
  • Status: offline
Re: Импорт с русской локализацией (обсуждение), том III 2016/10/04 10:43:40 (ссылка) ☄ Helpfulby Tempa 2016/10/04 15:44:20
hdmaniac
Moderator
  • Total Posts : 14903
  • Scores: 25095
  • Joined: 2008/01/26 18:49:41
  • Location: Москва
  • Status: online
Re: Импорт с русской локализацией (обсуждение), том III 2016/10/04 13:30:04 (ссылка)
0
bertuccio
Star Trek Beyond
 
http://www.novamnm.com/product/blu-ray-star-trek-beyond/550/?cate_no=1&display_group=2
http://www.novamnm.com/product/blu-ray-star-trek-beyond-2d3d-character-steelbook-le/546/?cate_no=1&display_group=2
 

 
Там ещё есть вот такой стилбук. На кимчи такие же, и цена такая же) Но заказал с утра на Nova, у них уже можно предзаказ сделать...

BLU-RAY -1270, 4K ULTRA HD - 515
UHD 4K PANASONIC 824GK(ABC), UBD 4К OPPO 203(A), 4К Magnavox MBP6700(А), 
OPPO BDP-93 3D (ABC), LG BP325(C), PS 4 (500 Гб "A"), PS 5(1Тб "С")  Apple 4K TV
TV TCL 98 X955
projector 4K Sony VPL-VW360
 
EdgarsGer
Любитель
  • Total Posts : 198
  • Scores: 140
  • Joined: 2012/10/03 00:27:29
  • Location: Латвия
  • Status: offline
Re: Импорт с русской локализацией (обсуждение), том III 2016/10/04 13:47:53 (ссылка) ☄ Helpfulby Tempa 2016/10/04 15:44:39
+4 (4)
bertuccio
X-Men: Apocalypse 3D вышел в Прибалтике. Возможно, с русской локализацией:
 
http://www.apollo.ee/br-x-mehed-apokalupsis-2d-3d-blu-ray-combo.html
 
Нет ли у кого подтверждения?




есть русский и на 2D и 3D
bertuccio
Эксперт
  • Total Posts : 2380
  • Scores: 5197
  • Joined: 2012/04/13 22:05:26
  • Status: offline
Re: Импорт с русской локализацией (обсуждение), том III 2016/10/04 14:04:20 (ссылка)
0
EdgarsGer
 
есть русский и на 2D и 3D




Спасибо за информацию
bertuccio
Эксперт
  • Total Posts : 2380
  • Scores: 5197
  • Joined: 2012/04/13 22:05:26
  • Status: offline
Re: Импорт с русской локализацией (обсуждение), том III 2016/10/04 14:11:54 (ссылка)
+1 (1)
Австралийские издания:
 
Inferno
 
http://www.ezydvd.com.au/blu-ray/inferno-2016-uhd-4k-blu-ray-ultraviolet/dp/6178033
 
The Magnificent Seven (2016)
 
http://www.ezydvd.com.au/blu-ray/magnificent-seven-the-2016-uhd-4k-blu-ray-ultraviolet/dp/6178038
 
 
Думаю, что речь идет о русской локализации на версиях 4K UHD. Очевидно, такие же релизы выйдут и в США
b2zer
Меценат
  • Total Posts : 2423
  • Scores: 1463
  • Joined: 2014/08/28 15:56:57
  • Status: offline
Re: Импорт с русской локализацией (обсуждение), том III 2016/10/04 14:33:21 (ссылка)
+3 (3)
Похоже пока покупать 4к плеер чисто чтоб такие диски играть, пофиг что 4к телека нет и не планируется.
prjanick
Editor
  • Total Posts : 8513
  • Scores: 16931
  • Joined: 2009/12/07 21:14:03
  • Location: СПб
  • Status: offline
Re: Импорт с русской локализацией (обсуждение), том III 2016/10/04 17:55:52 (ссылка)
+3 (3)
Полтора шпиона / Central Intelligence
 
BDInfo

 
Disc Size:      34 525 530 335 bytes
Protection:     AACS
BD-Java:        Yes
BDInfo:         0.5.8

PLAYLIST REPORT:

Name:                   00800.MPLS
Length:                 1:47:37.701 (h:m:s.ms)
Size:                   30 806 341 632 bytes
Total Bitrate:          38,16 Mbps

VIDEO:

Codec                   Bitrate             Description     
-----                   -------             -----------     
MPEG-4 AVC Video        25379 kbps          1080p / 23,976 fps / 16:9 / High Profile 4.1

AUDIO:

Codec                           Language        Bitrate         Description     
-----                           --------        -------         -----------     
DTS-HD Master Audio             English         3712 kbps       5.1 / 48 kHz / 3712 kbps / 24-bit (DTS Core: 5.1 / 48 kHz / 1509 kbps / 24-bit)
DTS Audio                       Czech           768 kbps        5.1 / 48 kHz / 768 kbps / 24-bit
DTS Audio                       Hungarian       768 kbps        5.1 / 48 kHz / 768 kbps / 24-bit
DTS Audio                       Polish          768 kbps        5.1 / 48 kHz / 768 kbps / 24-bit
DTS Audio                       Russian         768 kbps        5.1 / 48 kHz / 768 kbps / 24-bit
DTS Audio                       Spanish         768 kbps        5.1 / 48 kHz / 768 kbps / 24-bit
DTS Audio                       Thai            768 kbps        5.1 / 48 kHz / 768 kbps / 24-bit
Dolby Digital Audio             English         192 kbps        2.0 / 48 kHz / 192 kbps / DN -4dB / Dolby Surround

SUBTITLES:

Codec                           Language        Bitrate         Description     
-----                           --------        -------         -----------     
Presentation Graphics           English         61,083 kbps                     
Presentation Graphics           English         84,952 kbps                     
Presentation Graphics           Bulgarian       49,200 kbps                     
Presentation Graphics           Chinese         30,418 kbps                     
Presentation Graphics           Chinese         40,717 kbps                     
Presentation Graphics           Croatian        47,830 kbps                     
Presentation Graphics           Czech           42,872 kbps                     
Presentation Graphics           Czech           1,519 kbps                      
Presentation Graphics           Estonian        41,123 kbps                     
Presentation Graphics           Greek           52,285 kbps                     
Presentation Graphics           Hebrew          35,563 kbps                     
Presentation Graphics           Hungarian       47,646 kbps                     
Presentation Graphics           Hungarian       1,370 kbps                      
Presentation Graphics           Indonesian      54,959 kbps                     
Presentation Graphics           Korean          34,663 kbps                     
Presentation Graphics           Latvian         36,710 kbps                     
Presentation Graphics           Lithuanian      53,113 kbps                     
Presentation Graphics           Polish          42,952 kbps                     
Presentation Graphics           Romanian        46,798 kbps                     
Presentation Graphics           Russian         51,899 kbps                     
Presentation Graphics           Russian         1,638 kbps                      
Presentation Graphics           Slovenian       33,825 kbps                     
Presentation Graphics           Spanish         46,697 kbps                     
Presentation Graphics           Spanish         1,210 kbps                      
Presentation Graphics           Thai            39,234 kbps                     
Presentation Graphics           Thai            0,776 kbps                      
Presentation Graphics           Ukrainian       47,521 kbps
Спрятать

voovaz
Эксперт
  • Total Posts : 1330
  • Scores: 2068
  • Joined: 2015/09/15 11:14:25
  • Status: offline
Re: Импорт с русской локализацией (обсуждение), том III 2016/10/04 22:49:29 (ссылка) ☄ Helpfulby apelsin7 2016/10/05 14:25:29
+8 (8)
Алиса в Зазеркалье / Alice Through the Looking Glass
 
DISC INFO:

Disc Title: ALICE_THROUGH_LOOKING_GLASS_3D
Disc Size: 49 058 614 677 bytes
Protection: AACS
BD-Java: Yes
Extras: Blu-ray 3D
BDInfo: 0.5.8

PLAYLIST REPORT:

Name: 00800.MPLS
Length: 1:52:57.937 (h:m:s.ms)
Size: 47 627 606 016 bytes
Total Bitrate: 56,21 Mbps

VIDEO:

Codec Bitrate Description
----- ------- -----------
MPEG-4 AVC Video 31880 kbps 1080p / 23,976 fps / 16:9 / High Profile 4.1
MPEG-4 MVC Video 11889 kbps

AUDIO:

Codec Language Bitrate Description
----- -------- ------- -----------
DTS-HD Master Audio English 4965 kbps 7.1 / 48 kHz / 4965 kbps / 24-bit (DTS Core: 5.1 / 48 kHz / 1509 kbps / 24-bit)
DTS-HD High-Res Audio French 2046 kbps 5.1 / 48 kHz / 2046 kbps / 24-bit (DTS Core: 5.1 / 48 kHz / 1509 kbps / 24-bit)
Dolby Digital Audio Czech 640 kbps 5.1 / 48 kHz / 640 kbps
Dolby Digital Audio Kazakh 640 kbps 5.1 / 48 kHz / 640 kbps
Dolby Digital Audio Russian 640 kbps 5.1 / 48 kHz / 640 kbps

SUBTITLES:

Codec Language Bitrate Description
----- -------- ------- -----------
Presentation Graphics English 34,289 kbps
Presentation Graphics English 0,028 kbps
Presentation Graphics Arabic 14,533 kbps
Presentation Graphics Czech 24,775 kbps
Presentation Graphics Czech 0,161 kbps
Presentation Graphics Dutch 23,930 kbps
Presentation Graphics French 24,303 kbps
Presentation Graphics French 0,167 kbps
Presentation Graphics Russian 25,927 kbps
Presentation Graphics Russian 0,138 kbps

FILES:

Name Time In Length Size Total Bitrate
---- ------- ------ ---- -------------
00300.SSIF 0:00:00.000 1:52:57.937 47 627 606 016 56 215

 
 
DON-ROMARIO
Меценат
  • Total Posts : 2046
  • Scores: 5111
  • Joined: 2006/08/16 13:26:04
  • Location: Москва м.Южная
  • Status: offline
Re: Импорт с русской локализацией (обсуждение), том III 2016/10/04 23:13:56 (ссылка)
+1 (1)
Ура!
FFDesign
Любитель
  • Total Posts : 129
  • Scores: 53
  • Joined: 2011/07/15 08:02:54
  • Location: Москва
  • Status: offline
Re: Импорт с русской локализацией (обсуждение), том III 2016/10/05 19:04:38 (ссылка)
+1 (1)
Сегодня получен испанский X-Men: Apocalypse. Русская дорожка только на 2D. 3D версия без русского!
viktorFilms
Меценат
  • Total Posts : 1420
  • Scores: 983
  • Joined: 2013/01/31 00:38:32
  • Location: Тула
  • Status: online
Re: Импорт с русской локализацией (обсуждение), том III 2016/10/05 19:12:04 (ссылка)
0
А какой тогда набор языков на 3D в Прибалтике, там ведь есть русский.
bertuccio
Эксперт
  • Total Posts : 2380
  • Scores: 5197
  • Joined: 2012/04/13 22:05:26
  • Status: offline
Re: Импорт с русской локализацией (обсуждение), том III 2016/10/06 08:30:05 (ссылка)
Genereo
Любитель
  • Total Posts : 313
  • Scores: 308
  • Joined: 2011/02/01 21:48:54
  • Status: offline
Re: Импорт с русской локализацией (обсуждение), том III 2016/10/06 09:46:10 (ссылка)
+1 (1)
viktorFilms
А какой тогда набор языков на 3D в Прибалтике



Disc Size: 48,757,306,116 bytes
Protection: BD+
BD-Java: Yes
Playlist: 00800.MPLS
Size: 47,490,766,848 bytes
Length: 2:23:57.295
Total Bitrate: 43.99 Mbps
Video: MPEG-4 AVC Video / 23497 kbps / 1080p / 23.976 fps / 16:9 / High Profile 4.1
Video: MPEG-4 MVC Video / 8650 kbps / 
Audio: English / DTS-HD Master Audio / 7.1 / 48 kHz / 5216 kbps / 24-bit (DTS Core: 5.1-ES / 48 kHz / 1509 kbps / 24-bit)
Audio: English / Dolby Digital Audio / 5.1 / 48 kHz / 448 kbps
Audio: Spanish / Dolby Digital Audio / 5.1 / 48 kHz / 448 kbps
Audio: French / DTS Audio / 5.1 / 48 kHz / 768 kbps / 24-bit
Audio: Portuguese / Dolby Digital Audio / 5.1 / 48 kHz / 448 kbps
Audio: Russian / DTS Audio / 5.1 / 48 kHz / 768 kbps / 24-bit
Audio: Ukrainian / Dolby Digital Audio / 5.1 / 48 kHz / 448 kbps
Subtitle: English / 31.169 kbps
Subtitle: Spanish / 22.212 kbps
Subtitle: French / 22.853 kbps
Subtitle: French / 1.326 kbps
Subtitle: Danish / 20.477 kbps
Subtitle: Finnish / 19.773 kbps
Subtitle: Norwegian / 22.105 kbps
Subtitle: Portuguese / 20.496 kbps
Subtitle: Russian / 21.748 kbps
Subtitle: Swedish / 21.489 kbps
Subtitle: Estonian / 22.249 kbps
Subtitle: Korean / 14.676 kbps
Subtitle: Latvian / 20.954 kbps
Subtitle: Lithuanian / 21.233 kbps
Subtitle: Ukrainian / 21.819 kbps
Subtitle: English / 0.737 kbps

prjanick
Editor
  • Total Posts : 8513
  • Scores: 16931
  • Joined: 2009/12/07 21:14:03
  • Location: СПб
  • Status: offline
Re: Импорт с русской локализацией (обсуждение), том III 2016/10/06 11:40:31 (ссылка)
+3 (3)
И гаснет свет / Lights Out заявлен в Португалии
 

 
Audio
English: DTS-HD Master Audio 5.1
Czech: Dolby Digital 5.1
Hungarian: Dolby Digital 5.1
Polish: Dolby Digital 5.1
Russian: Dolby Digital 5.1
Thai: Dolby Digital 5.1

Subtitles
Portuguese, English SDH, Arabic, Czech, Greek, Hebrew, Hungarian, Polish, Romanian, Russian, Thai, Turkish
trezor78
Гуру
  • Total Posts : 6041
  • Scores: 1635
  • Joined: 2010/10/06 18:50:20
  • Location: Москва
  • Status: offline
Re: Импорт с русской локализацией (обсуждение), том III 2016/10/07 08:45:57 (ссылка)
+1 (1)
Genereo
viktorFilms
А какой тогда набор языков на 3D в Прибалтике



Disc Size: 48,757,306,116 bytes
Protection: BD+
BD-Java: Yes
Playlist: 00800.MPLS
Size: 47,490,766,848 bytes
Length: 2:23:57.295
Total Bitrate: 43.99 Mbps
Video: MPEG-4 AVC Video / 23497 kbps / 1080p / 23.976 fps / 16:9 / High Profile 4.1
Video: MPEG-4 MVC Video / 8650 kbps / 
Audio: English / DTS-HD Master Audio / 7.1 / 48 kHz / 5216 kbps / 24-bit (DTS Core: 5.1-ES / 48 kHz / 1509 kbps / 24-bit)
Audio: English / Dolby Digital Audio / 5.1 / 48 kHz / 448 kbps
Audio: Spanish / Dolby Digital Audio / 5.1 / 48 kHz / 448 kbps
Audio: French / DTS Audio / 5.1 / 48 kHz / 768 kbps / 24-bit
Audio: Portuguese / Dolby Digital Audio / 5.1 / 48 kHz / 448 kbps
Audio: Russian / DTS Audio / 5.1 / 48 kHz / 768 kbps / 24-bit
Audio: Ukrainian / Dolby Digital Audio / 5.1 / 48 kHz / 448 kbps
Subtitle: English / 31.169 kbps
Subtitle: Spanish / 22.212 kbps
Subtitle: French / 22.853 kbps
Subtitle: French / 1.326 kbps
Subtitle: Danish / 20.477 kbps
Subtitle: Finnish / 19.773 kbps
Subtitle: Norwegian / 22.105 kbps
Subtitle: Portuguese / 20.496 kbps
Subtitle: Russian / 21.748 kbps
Subtitle: Swedish / 21.489 kbps
Subtitle: Estonian / 22.249 kbps
Subtitle: Korean / 14.676 kbps
Subtitle: Latvian / 20.954 kbps
Subtitle: Lithuanian / 21.233 kbps
Subtitle: Ukrainian / 21.819 kbps
Subtitle: English / 0.737 kbps





3D диск с русской локализацией есть в американском издании
http://www.blu-ray.com/mo...Blu-ray/138423/#Review
voovaz
Эксперт
  • Total Posts : 1330
  • Scores: 2068
  • Joined: 2015/09/15 11:14:25
  • Status: offline
Re: Импорт с русской локализацией (обсуждение), том III 2016/10/07 15:46:12 (ссылка)
+2 (2)
INDEPENDENCE_DAY_RESURGENCE
 
DISC INFO:

Disc Title: INDEPENDENCE_DAY_RESURGENCE_HDCLUB
Disc Size: 44 877 458 532 bytes
Protection: AACS
BD-Java: Yes
BDInfo: 0.5.8

PLAYLIST REPORT:

Name: 00800.MPLS
Length: 1:59:44.176 (h:m:s.ms)
Size: 33 911 894 016 bytes
Total Bitrate: 37,76 Mbps

VIDEO:

Codec Bitrate Description
----- ------- -----------
MPEG-4 AVC Video 25815 kbps 1080p / 23,976 fps / 16:9 / High Profile 4.1

AUDIO:

Codec Language Bitrate Description
----- -------- ------- -----------
DTS-HD Master Audio English 5023 kbps 7.1 / 48 kHz / 5023 kbps / 24-bit (DTS Core: 5.1-ES / 48 kHz / 1509 kbps / 24-bit)
DTS Audio Russian 768 kbps 5.1 / 48 kHz / 768 kbps / 24-bit
Dolby Digital Audio English 448 kbps 5.1 / 48 kHz / 448 kbps
Dolby Digital Audio French 448 kbps 5.1 / 48 kHz / 448 kbps
Dolby Digital Audio Portuguese 448 kbps 5.1 / 48 kHz / 448 kbps
Dolby Digital Audio Spanish 448 kbps 5.1 / 48 kHz / 448 kbps
Dolby Digital Audio Turkish 448 kbps 5.1 / 48 kHz / 448 kbps
Dolby Digital Audio Ukrainian 448 kbps 5.1 / 48 kHz / 448 kbps
Dolby Digital Audio English 224 kbps 2.0 / 48 kHz / 224 kbps

SUBTITLES:

Codec Language Bitrate Description
----- -------- ------- -----------
Presentation Graphics English 45,339 kbps
Presentation Graphics English 0,039 kbps
Presentation Graphics English 61,611 kbps
Presentation Graphics Arabic 19,291 kbps
Presentation Graphics Danish 34,214 kbps
Presentation Graphics Danish 54,236 kbps
Presentation Graphics Estonian 35,836 kbps
Presentation Graphics Finnish 32,701 kbps
Presentation Graphics Finnish 52,632 kbps
Presentation Graphics French 37,522 kbps
Presentation Graphics French 53,529 kbps
Presentation Graphics Hebrew 25,259 kbps
Presentation Graphics Icelandic 36,050 kbps
Presentation Graphics Korean 22,317 kbps
Presentation Graphics Korean 22,883 kbps
Presentation Graphics Latvian 34,038 kbps
Presentation Graphics Lithuanian 34,665 kbps
Presentation Graphics Norwegian 32,946 kbps
Presentation Graphics Norwegian 51,933 kbps
Presentation Graphics Portuguese 37,839 kbps
Presentation Graphics Portuguese 39,274 kbps
Presentation Graphics Russian 36,864 kbps
Presentation Graphics Russian 58,861 kbps
Presentation Graphics Spanish 35,113 kbps
Presentation Graphics Spanish 53,791 kbps
Presentation Graphics Swedish 34,764 kbps
Presentation Graphics Swedish 50,552 kbps
Presentation Graphics Turkish 35,719 kbps
Presentation Graphics Ukrainian 36,892 kbps

FILES:

Name Time In Length Size Total Bitrate
---- ------- ------ ---- -------------
00600.M2TS 0:00:00.000 0:03:19.282 921 243 648 36 982
00601.M2TS 0:03:19.282 0:00:11.636 59 037 696 40 588
00603.M2TS 0:03:30.919 1:56:13.257 32 931 612 672 37 780

 
 
Page: << < ..5152535455.. > >> Showing page 52 of 103
Jump to:
© 2024 APG vNext Commercial Version 5.5