Правила | Zavvi | Amazon.com Amazon.ca Amazon.co.uk Amazon.de Amazon.fr Amazon.it Amazon.es | OZON.ru

Helpful ReplyHot!Импорт с русской локализацией (обсуждение), том IV

Page: << < ..8687888990.. > >> Showing page 89 of 103
Author
hdmaniac
Moderator
  • Total Posts : 14904
  • Scores: 25095
  • Joined: 2008/01/26 18:49:41
  • Location: Москва
  • Status: online
Re: Импорт с русской локализацией (обсуждение), том IV 2022/03/27 19:10:05 (ссылка)
+1 (1)
 Ледяной демон
 
Спойлер
PLAYLIST REPORT:

Name:                   01002.MPLS  
Length:                 1:32:31.587 (h:m:s.ms)
Size:                   30,701,445,120 bytes
Total Bitrate:          44.24 Mbps

VIDEO:

Codec                   Bitrate             Description    
-----                   -------             -----------    
MPEG-4 AVC Video        32000 kbps          1080p / 23.976 fps / 16:9 / High Profile 4.1

AUDIO:

Codec                           Language        Bitrate         Description    
-----                           --------        -------         -----------    
DTS-HD Master Audio             English         3057 kbps       5.1 / 48 kHz / 3057 kbps / 24-bit (DTS Core: 5.1 / 48 kHz / 1509 kbps / 24-bit)
DTS-HD Master Audio             English         1728 kbps       2.0 / 48 kHz / 1728 kbps / 24-bit (DTS Core: 2.0 / 48 kHz / 1509 kbps / 24-bit)
DTS-HD Master Audio             Russian         2992 kbps       5.1 / 48 kHz / 2992 kbps / 24-bit (DTS Core: 5.1 / 48 kHz / 1509 kbps / 24-bit)
DTS-HD Master Audio             Russian         1573 kbps       2.0 / 48 kHz / 1573 kbps / 24-bit (DTS Core: 2.0 / 48 kHz / 1509 kbps / 24-bit)

SUBTITLES:

Codec                           Language        Bitrate         Description    
-----                           --------        -------         -----------    
Presentation Graphics           English         19.043 kbps                    
Presentation Graphics           English         14.771 kbps
Спрятать

 
Экипаж и Невероятные приключения итальянцев в России у немцев без русского...
post edited by hdmaniac - 2022/03/27 19:31:53

BLU-RAY -1270, 4K ULTRA HD - 515
UHD 4K PANASONIC 824GK(ABC), UBD 4К OPPO 203(A), 4К Magnavox MBP6700(А), 
OPPO BDP-93 3D (ABC), LG BP325(C), PS 4 (500 Гб "A"), PS 5(1Тб "С")  Apple 4K TV
TV TCL 98 X955
projector 4K Sony VPL-VW360
 
viktorFilms
Меценат
  • Total Posts : 1420
  • Scores: 983
  • Joined: 2013/01/31 00:38:32
  • Location: Тула
  • Status: offline
Re: Импорт с русской локализацией (обсуждение), том IV 2022/03/27 21:27:07 (ссылка)
0
Про Экипаж и приключения итальянцев печально. Но задников с амазона не видно. Может не всё потеряно?
fmd1
Любитель
  • Total Posts : 168
  • Scores: 63
  • Joined: 2016/10/11 23:24:17
  • Status: offline
Re: Импорт с русской локализацией (обсуждение), том IV 2022/03/29 16:01:31 (ссылка)
0
Очень жаль. Я оба собирался прикупить, когда б была такая возможность. Но без русского смысла нет.
hdmaniac
Moderator
  • Total Posts : 14904
  • Scores: 25095
  • Joined: 2008/01/26 18:49:41
  • Location: Москва
  • Status: online
Re: Импорт с русской локализацией (обсуждение), том IV 2022/04/04 18:06:34 (ссылка)
+4 (4)
Гусарская баллада  и Иван Денисович(2021) в Германии...
post edited by hdmaniac - 2022/04/04 18:23:50

BLU-RAY -1270, 4K ULTRA HD - 515
UHD 4K PANASONIC 824GK(ABC), UBD 4К OPPO 203(A), 4К Magnavox MBP6700(А), 
OPPO BDP-93 3D (ABC), LG BP325(C), PS 4 (500 Гб "A"), PS 5(1Тб "С")  Apple 4K TV
TV TCL 98 X955
projector 4K Sony VPL-VW360
 
ХДКлуб
Ценитель
  • Total Posts : 971
  • Scores: 135
  • Joined: 2009/12/08 22:38:09
  • Location: Голубой Рай
  • Status: offline
Re: Импорт с русской локализацией (обсуждение), том IV 2022/04/07 00:07:20 (ссылка)
+2 (2)
Цензор (2017) [Blu-ray] DE
PLAYLIST REPORT:

Name:                   01001.MPLS  
Length:                 1:57:28.197 (h:m:s.ms)
Size:                   18,777,649,152 bytes
Total Bitrate:          21.31 Mbps

VIDEO:

Codec                   Bitrate             Description     
-----                   -------             -----------     
MPEG-4 AVC Video        16392 kbps          1080i / 25 fps / 16:9 / High Profile 4.1

AUDIO:

Codec                           Language        Bitrate         Description     
-----                           --------        -------         -----------     
DTS-HD Master Audio             German          1742 kbps       5.1 / 48 kHz / 1742 kbps / 16-bit (DTS Core: 5.1 / 48 kHz / 768 kbps / 16-bit)
DTS-HD Master Audio             Russian         1891 kbps       5.1 / 48 kHz / 1891 kbps / 16-bit (DTS Core: 5.1 / 48 kHz / 768 kbps / 16-bit)

SUBTITLES:

Codec                           Language        Bitrate         Description     
-----                           --------        -------         -----------     
Presentation Graphics           German          25.011 kbps                     
Presentation Graphics           German          2.25 kbps                       

FILES:

Name            Time In         Length          Size            Total Bitrate   
----            -------         ------          ----            -------------   
00003.M2TS      0:00:00.000     1:57:27.280     18,775,640,064  21,313 kbps     
00004.M2TS      1:57:27.280     0:00:00.917     2,009,088       17,516 kbps

ХДКлуб
Ценитель
  • Total Posts : 971
  • Scores: 135
  • Joined: 2009/12/08 22:38:09
  • Location: Голубой Рай
  • Status: offline
Re: Импорт с русской локализацией (обсуждение), том IV 2022/04/07 00:57:43 (ссылка)
+2 (2)
Ряд 19 (2021) [Blu-ray] DE
PLAYLIST REPORT:

Name:                   01001.MPLS  
Length:                 1:17:58.417 (h:m:s.ms)
Size:                   16,814,260,224 bytes
Total Bitrate:          28.75 Mbps

VIDEO:

Codec                   Bitrate             Description     
-----                   -------             -----------     
MPEG-4 AVC Video        24037 kbps          1080p / 24 fps / 16:9 / High Profile 4.1

AUDIO:

Codec                           Language        Bitrate         Description     
-----                           --------        -------         -----------     
DTS-HD Master Audio             German          1513 kbps       5.1 / 48 kHz / 1513 kbps / 16-bit (DTS Core: 5.1 / 48 kHz / 768 kbps / 16-bit)
DTS-HD Master Audio             Russian         1608 kbps       5.1 / 48 kHz / 1608 kbps / 16-bit (DTS Core: 5.1 / 48 kHz / 768 kbps / 16-bit)

SUBTITLES:

Codec                           Language        Bitrate         Description     
-----                           --------        -------         -----------     
Presentation Graphics           German          22.534 kbps                     
Presentation Graphics           German          0.847 kbps                      

FILES:

Name            Time In         Length          Size            Total Bitrate   
----            -------         ------          ----            -------------   
00003.M2TS      0:00:00.000     1:17:57.500     16,812,251,136  28,754 kbps     
00004.M2TS      1:17:57.500     0:00:00.917     2,009,088       17,516 kbps

 
Genereo
Любитель
  • Total Posts : 313
  • Scores: 308
  • Joined: 2011/02/01 21:48:54
  • Status: offline
Re: Импорт с русской локализацией (обсуждение), том IV 2022/04/09 13:19:29 (ссылка)
+4 (4)
Испанский диск Spider-Man: No Way Home
 
Disc Size:      41,434,629,322 bytes
Protection:     AACS
Extras:         BD-Java
BDInfo:         0.7.5.5

PLAYLIST REPORT:

Name:                   00001.MPLS
Length:                 2: 28:09.881 (h:m:s.ms)
Size:                   32,384,471,040 bytes
Total Bitrate:          29.14 Mbps

VIDEO:

Codec                   Bitrate             Description    
-----                   -------             -----------    
MPEG-4 AVC Video        21938 kbps          1080p / 23.976 fps / 16:9 / High Profile 4.1

AUDIO:

Codec                           Language        Bitrate         Description    
-----                           --------        -------         -----------    
DTS-HD Master Audio             English         2200 kbps       5.1 / 48 kHz /  2200 kbps / 16-bit (DTS Core: 5.1 / 48 kHz /  1509 kbps / 16-bit)
Dolby Digital Audio             Russian         640 kbps        5.1 / 48 kHz /   640 kbps / DN -31dB
DTS-HD Master Audio             Spanish         2213 kbps       5.1 / 48 kHz /  2213 kbps / 16-bit (DTS Core: 5.1 / 48 kHz /  1509 kbps / 16-bit)

SUBTITLES:

Codec                           Language        Bitrate         Description    
-----                           --------        -------         -----------    
Presentation Graphics           English         35.263 kbps                    
Presentation Graphics           Danish          28.613 kbps                    
Presentation Graphics           Estonian        31.430 kbps                    
Presentation Graphics           Finnish         30.237 kbps                    
Presentation Graphics           Latvian         31.870 kbps                    
Presentation Graphics           Lithuanian      30.160 kbps                    
Presentation Graphics           Norwegian       27.854 kbps                    
Presentation Graphics           Russian         31.245 kbps                    
Presentation Graphics           Spanish         33.776 kbps                    
Presentation Graphics           Swedish         29.824 kbps

viktorFilms
Меценат
  • Total Posts : 1420
  • Scores: 983
  • Joined: 2013/01/31 00:38:32
  • Location: Тула
  • Status: offline
Re: Импорт с русской локализацией (обсуждение), том IV 2022/04/09 13:39:23 (ссылка)
+2 (2)
Была у меня некоторая надежда на Ghostbusters: Afterlife у индийцев. Но сегодня появились задники. Нет русского. Но что характерно, нет и Hindi, так что sony и для почти полутора миллиарда индийцев не положила ни Hindi, ни Tamila, ни Tegulu
Genereo
Любитель
  • Total Posts : 313
  • Scores: 308
  • Joined: 2011/02/01 21:48:54
  • Status: offline
Re: Импорт с русской локализацией (обсуждение), том IV 2022/04/10 11:51:45 (ссылка)
+6 (6)
Баллада о солдате 29 апреля в Японии
 

ХДКлуб
Ценитель
  • Total Posts : 971
  • Scores: 135
  • Joined: 2009/12/08 22:38:09
  • Location: Голубой Рай
  • Status: offline
Re: Импорт с русской локализацией (обсуждение), том IV 2022/04/10 21:40:34 (ссылка)
0
BondDM
Ку! Кин-дза-дза (Japan)
 

 
 
 
DISC INFO:
 
Disc Title: KU_KIN_DZA_DZA
Disc Size: 24,989,899,772 bytes
Protection: AACS
BDInfo: 0.7.5.9 (compatible layout created by DVDFab 12.0.5.5)
 
PLAYLIST REPORT:
 
Name: 00002.MPLS
Length: 1:36:37.249 (h:m:s.ms)
Size: 24,371,392,512 bytes
Total Bitrate: 33.63 Mbps
 
VIDEO:
 
Codec Bitrate Description
----- ------- -----------
MPEG-4 AVC Video 29969 kbps 1080p / 23.976 fps / 16:9 / High Profile 4.1
 
AUDIO:
 
Codec Language Bitrate Description
----- -------- ------- -----------
DTS-HD Master Audio Russian 1940 kbps 5.1 / 48 kHz / 1940 kbps / 16-bit (DTS Core: 5.1 / 48 kHz / 1509 kbps / 16-bit)
 
SUBTITLES:
 
Codec Language Bitrate Description
----- -------- ------- -----------
Presentation Graphics Japanese 16.404 kbps
 
 
 



Кин-дза-дза! (1986) / Ку! Кин-дза-дза (2013) (Коллекционное издание + Футболка)

Lizard Cinema Trade
ХДКлуб
Ценитель
  • Total Posts : 971
  • Scores: 135
  • Joined: 2009/12/08 22:38:09
  • Location: Голубой Рай
  • Status: offline
Re: Импорт с русской локализацией (обсуждение), том IV 2022/04/17 19:12:03 (ссылка)
+1 (1)
Die Farbe (Цвет) [Blu-ray] DE по рассказу американского писателя Говарда Филлипса Лавкрафта нету в списке. Американский диск раздутая перекодировка немецкого издания, с выброшенными русскими субтитрами с идентичных дополнительных материалов.
Genereo
Любитель
  • Total Posts : 313
  • Scores: 308
  • Joined: 2011/02/01 21:48:54
  • Status: offline
Re: Импорт с русской локализацией (обсуждение), том IV 2022/04/20 17:24:05 (ссылка)
+2 (2)
hdmaniac
Невероятные приключения итальянцев в России у немцев без русского...

 
Диск в сети:
 
Disc Size: 24,884,083,673 bytes
Protection: AACS
Playlist: 00004.MPLS
Size: 21,896,236,608 bytes
Length: 1:42:19.133
Total Bitrate: 28.53 Mbps
Video: MPEG-4 AVC Video / 22968 kbps / 1080p / 23.976 fps / 16:9 / High Profile 4.1
Audio: German / DTS-HD Master Audio / 1.0 / 48 kHz /   846 kbps / 16-bit (DTS Core: 1.0 / 48 kHz /   768 kbps / 16-bit)
Audio: Russian / DTS-HD Master Audio / 1.0 / 48 kHz /   877 kbps / 16-bit (DTS Core: 1.0 / 48 kHz /   768 kbps / 16-bit)
Audio: Russian / DTS-HD Master Audio / 5.1 / 48 kHz /  2106 kbps / 16-bit (DTS Core: 5.1 / 48 kHz /  1509 kbps / 16-bit)

hdmaniac
Moderator
  • Total Posts : 14904
  • Scores: 25095
  • Joined: 2008/01/26 18:49:41
  • Location: Москва
  • Status: online
Re: Импорт с русской локализацией (обсуждение), том IV 2022/04/20 17:38:25 (ссылка)
0
Genereo
hdmaniac
Невероятные приключения итальянцев в России у немцев без русского...

 
Диск в сети:
 
Disc Size: 24,884,083,673 bytes
Protection: AACS
Playlist: 00004.MPLS
Size: 21,896,236,608 bytes
Length: 1:42:19.133
Total Bitrate: 28.53 Mbps
Video: MPEG-4 AVC Video / 22968 kbps / 1080p / 23.976 fps / 16:9 / High Profile 4.1
Audio: German / DTS-HD Master Audio / 1.0 / 48 kHz /   846 kbps / 16-bit (DTS Core: 1.0 / 48 kHz /   768 kbps / 16-bit)
Audio: Russian / DTS-HD Master Audio / 1.0 / 48 kHz /   877 kbps / 16-bit (DTS Core: 1.0 / 48 kHz /   768 kbps / 16-bit)
Audio: Russian / DTS-HD Master Audio / 5.1 / 48 kHz /  2106 kbps / 16-bit (DTS Core: 5.1 / 48 kHz /  1509 kbps / 16-bit)


отлично! нужно покупать)

BLU-RAY -1270, 4K ULTRA HD - 515
UHD 4K PANASONIC 824GK(ABC), UBD 4К OPPO 203(A), 4К Magnavox MBP6700(А), 
OPPO BDP-93 3D (ABC), LG BP325(C), PS 4 (500 Гб "A"), PS 5(1Тб "С")  Apple 4K TV
TV TCL 98 X955
projector 4K Sony VPL-VW360
 
EST/Disc/Man
Любитель
  • Total Posts : 104
  • Scores: 80
  • Joined: 2014/07/21 17:27:38
  • Status: offline
Re: Импорт с русской локализацией (обсуждение), том IV 2022/04/20 19:22:55 (ссылка)
0
В сети образ оригинального немецкого диска или образ с "прикрученной" русской дорожкой ?
hdmaniac
Moderator
  • Total Posts : 14904
  • Scores: 25095
  • Joined: 2008/01/26 18:49:41
  • Location: Москва
  • Status: online
Re: Импорт с русской локализацией (обсуждение), том IV 2022/04/20 22:03:15 (ссылка)
+4 (4)
EST/Disc/Man
В сети образ оригинального немецкого диска или образ с "прикрученной" русской дорожкой ?

думаю что данные оригинала. Реставрация кстати хорошая...
 

 
 

BLU-RAY -1270, 4K ULTRA HD - 515
UHD 4K PANASONIC 824GK(ABC), UBD 4К OPPO 203(A), 4К Magnavox MBP6700(А), 
OPPO BDP-93 3D (ABC), LG BP325(C), PS 4 (500 Гб "A"), PS 5(1Тб "С")  Apple 4K TV
TV TCL 98 X955
projector 4K Sony VPL-VW360
 
ХДКлуб
Ценитель
  • Total Posts : 971
  • Scores: 135
  • Joined: 2009/12/08 22:38:09
  • Location: Голубой Рай
  • Status: offline
Re: Импорт с русской локализацией (обсуждение), том IV 2022/04/21 21:23:38 (ссылка)
+3 (3)
Невероятные приключения итальянцев в России [Blu-ray] DE просто супер! Значит есть шанс с русским на Экипаж и Через тернии к звездам.
hdmaniac
Moderator
  • Total Posts : 14904
  • Scores: 25095
  • Joined: 2008/01/26 18:49:41
  • Location: Москва
  • Status: online
Re: Импорт с русской локализацией (обсуждение), том IV 2022/04/25 18:15:53 (ссылка)
+3 (3)
Выходящий через 3 дня Экипаж реж. А.Митты представлен в 2-х артах, надеюсь на русский, тиражи лимитированные...
 


BLU-RAY -1270, 4K ULTRA HD - 515
UHD 4K PANASONIC 824GK(ABC), UBD 4К OPPO 203(A), 4К Magnavox MBP6700(А), 
OPPO BDP-93 3D (ABC), LG BP325(C), PS 4 (500 Гб "A"), PS 5(1Тб "С")  Apple 4K TV
TV TCL 98 X955
projector 4K Sony VPL-VW360
 
ХДКлуб
Ценитель
  • Total Posts : 971
  • Scores: 135
  • Joined: 2009/12/08 22:38:09
  • Location: Голубой Рай
  • Status: offline
Re: Импорт с русской локализацией (обсуждение), том IV 2022/04/25 19:28:55 (ссылка)
+1 (1)
Стоп-Земля [Blu-ray] USA
PLAYLIST REPORT:

Name:                   00000.MPLS  
Length:                 2:02:21.500 (h:m:s.ms)
Size:                   37,037,506,560 bytes
Total Bitrate:          40.36 Mbps

VIDEO:

Codec                   Bitrate             Description     
-----                   -------             -----------     
MPEG-4 AVC Video        34896 kbps          1080p / 24 fps / 16:9 / High Profile 4.1

AUDIO:

Codec                           Language        Bitrate         Description     
-----                           --------        -------         -----------     
DTS-HD Master Audio             Ukrainian       3437 kbps       5.1 / 48 kHz / 3437 kbps / 24-bit (DTS Core: 5.1 / 48 kHz / 1509 kbps / 24-bit)

SUBTITLES:

Codec                           Language        Bitrate         Description     
-----                           --------        -------         -----------     
Presentation Graphics           English         22.483 kbps                     
Presentation Graphics           Spanish         20.653 kbps                     

FILES:

Name            Time In         Length          Size            Total Bitrate   
----            -------         ------          ----            -------------   
00000.M2TS      0:00:00.000     2:02:21.500     37,037,506,560  40,359 kbp

fmd1
Любитель
  • Total Posts : 168
  • Scores: 63
  • Joined: 2016/10/11 23:24:17
  • Status: offline
Re: Импорт с русской локализацией (обсуждение), том IV 2022/04/25 19:32:32 (ссылка)
0
hdmaniac
Выходящий через 3 дня Экипаж реж. А.Митты представлен в 2-х артах, надеюсь на русский, тиражи лимитированные...
 





Интересно, в чем отличие одного от другого, кроме обложек?
hdmaniac
Moderator
  • Total Posts : 14904
  • Scores: 25095
  • Joined: 2008/01/26 18:49:41
  • Location: Москва
  • Status: online
Re: Импорт с русской локализацией (обсуждение), том IV 2022/04/25 20:04:38 (ссылка)
0
ничем. просто 2 разных арта...

BLU-RAY -1270, 4K ULTRA HD - 515
UHD 4K PANASONIC 824GK(ABC), UBD 4К OPPO 203(A), 4К Magnavox MBP6700(А), 
OPPO BDP-93 3D (ABC), LG BP325(C), PS 4 (500 Гб "A"), PS 5(1Тб "С")  Apple 4K TV
TV TCL 98 X955
projector 4K Sony VPL-VW360
 
Page: << < ..8687888990.. > >> Showing page 89 of 103
Jump to:
© 2024 APG vNext Commercial Version 5.5