Правила | Zavvi | Amazon.com Amazon.ca Amazon.co.uk Amazon.de Amazon.fr Amazon.it Amazon.es | OZON.ru

Helpful ReplyLockedРелизы Крупного плана

Page: << < ..171172173174175 Showing page 175 of 175
Author
provod67
Любитель
  • Total Posts : 90
  • Scores: 19
  • Joined: 2011/02/28 14:06:35
  • Status: offline
Re: Релизы Крупного плана 2015/02/06 05:25:49 (ссылка)
0
General
Complete name : E:\Будьте моим мужем.mp4
Format : MPEG-4
Format profile : Base Media
Codec ID : isom
File size : 2.41 GiB
Duration : 1h 22mn
Overall bit rate : 4 194 Kbps
Writing application : Lavf56.15.102
Video
ID : 1
Format : AVC
Format/Info : Advanced Video Codec
Format profile : High@L4.1
Format settings, CABAC : Yes
Format settings, ReFrames : 5 frames
Codec ID : avc1
Codec ID/Info : Advanced Video Coding
Duration : 1h 22mn
Bit rate : 4 000 Kbps
Width : 1 484 pixels
Height : 1 076 pixels
Display aspect ratio : 1.379
Frame rate mode : Constant
Frame rate : 25.000 fps
Color space : YUV
Chroma subsampling : 4:2:0
Bit depth : 8 bits
Scan type : Progressive
Bits/(Pixel*Frame) : 0.100
Stream size : 2.30 GiB (96%)
Writing library : x264 core 144 r2525kMod 40bb568
Encoding settings : opencl=1 / cabac=1 / ref=5 / deblock=1:-1:-1 / analyse=0x3:0x113 / me=umh / subme=8 / psy=1 / fade_compensate=0.00 / psy_rd=1.00:0.00 / mixed_ref=1 / me_range=16 / chroma_me=1 / trellis=1 / 8x8dct=1 / cqm=0 / deadzone=21,11 / fast_pskip=1 / chroma_qp_offset=-2 / threads=7 / lookahead_threads=1 / sliced_threads=0 / nr=0 / decimate=1 / interlaced=0 / bluray_compat=0 / constrained_intra=0 / fgo=0 / bframes=3 / b_pyramid=2 / b_adapt=2 / b_bias=0 / direct=3 / weightb=1 / open_gop=0 / weightp=2 / keyint=250 / keyint_min=25 / scenecut=40 / intra_refresh=0 / rc_lookahead=50 / rc=abr / mbtree=1 / bitrate=4000 / ratetol=1.0 / qcomp=0.60 / qpmin=0 / qpmax=69 / qpstep=4 / ip_ratio=1.40 / aq=1:1.00
Audio
ID : 2
Format : AAC
Format/Info : Advanced Audio Codec
Format profile : LC
Codec ID : 40
Duration : 1h 22mn
Bit rate mode : Constant
Bit rate : 181 Kbps
Channel(s) : 2 channels
Channel positions : Front: L R
Sampling rate : 48.0 KHz
Compression mode : Lossy
Stream size : 107 MiB (4%)
 
BOLiK
Moderator
  • Total Posts : 9017
  • Scores: 2483
  • Joined: 2008/09/16 19:18:43
  • Location: Москва
  • Status: offline
Re: Релизы Крупного плана 2015/02/06 13:07:36 (ссылка)
0
provod67
 
Спасибо, но хотелось бы именно 12 стульев сравнить. Потому, что Будьте моим мужем на youtube только в 720p.
 
Судя по битрейту видео должно быть не сильно лучше чем на youtube.

Куплю оригинальные видеокассеты от Варус Видео
provod67
Любитель
  • Total Posts : 90
  • Scores: 19
  • Joined: 2011/02/28 14:06:35
  • Status: offline
Re: Релизы Крупного плана 2015/02/06 14:22:34 (ссылка)
0
BOLik
12 стульев на домашнем компе - приду с работы, выложу. Битрейт там должен быть похожим, так как размер по сути тот же - на две серии 4 с половиной гига. Вот только разница с ютюбом заметна невооруженным взглядом.
provod67
Любитель
  • Total Posts : 90
  • Scores: 19
  • Joined: 2011/02/28 14:06:35
  • Status: offline
Re: Релизы Крупного плана 2015/02/06 18:05:25 (ссылка)
0
F:\6фильмы наши\12 стульев (Гайдай).mp4
General
Complete name : F:\6фильмы наши\12 стульев (Гайдай).mp4
Format : MPEG-4
Format profile : Base Media
Codec ID : isom
File size : 4.47 GiB
Duration : 2h 32mn
Overall bit rate mode : Variable
Overall bit rate : 4 193 Kbps
Encoded date : UTC 2015-02-03 18:02:26
Tagged date : UTC 2015-02-03 18:02:26
Writing application : My MP4Box GUI 0.6.0.6 <http://my-mp4box-gui.zymichost.com>
Video #1
ID : 1
Format : AVC
Format/Info : Advanced Video Codec
Format profile : High@L4.1
Format settings, CABAC : Yes
Format settings, ReFrames : 4 frames
Codec ID : avc1
Codec ID/Info : Advanced Video Coding
Duration : 2h 32mn
Source duration : 2h 32mn
Bit rate : 4 000 Kbps
Maximum bit rate : 71.3 Mbps
Width : 1 920 pixels
Height : 1 080 pixels
Display aspect ratio : 16:9
Frame rate mode : Constant
Frame rate : 25.000 fps
Color space : YUV
Chroma subsampling : 4:2:0
Bit depth : 8 bits
Scan type : Progressive
Bits/(Pixel*Frame) : 0.077
Stream size : 4.27 GiB (96%)
Source stream size : 4.27 GiB (96%)
Title : 12 stuliev_hd.mp4
Writing library : x264 core 144 r2525kMod 40bb568
Encoding settings : opencl=1 / cabac=1 / ref=4 / deblock=1:-1:-1 / analyse=0x3:0x113 / me=umh / subme=8 / psy=1 / fade_compensate=0.00 / psy_rd=1.00:0.00 / mixed_ref=1 / me_range=16 / chroma_me=1 / trellis=1 / 8x8dct=1 / cqm=0 / deadzone=21,11 / fast_pskip=1 / chroma_qp_offset=-2 / threads=7 / lookahead_threads=1 / sliced_threads=0 / nr=0 / decimate=1 / interlaced=0 / bluray_compat=0 / constrained_intra=0 / fgo=0 / bframes=3 / b_pyramid=2 / b_adapt=2 / b_bias=0 / direct=3 / weightb=1 / open_gop=0 / weightp=2 / keyint=250 / keyint_min=25 / scenecut=40 / intra_refresh=0 / rc_lookahead=50 / rc=abr / mbtree=1 / bitrate=4000 / ratetol=1.0 / qcomp=0.60 / qpmin=0 / qpmax=69 / qpstep=4 / ip_ratio=1.40 / aq=1:1.00
Tagged date : UTC 2015-02-03 18:21:02
Audio #2
ID : 2
Format : AAC
Format/Info : Advanced Audio Codec
Format profile : LC
Codec ID : 40
Duration : 2h 32mn
Bit rate mode : Variable
Bit rate : 179 Kbps
Maximum bit rate : 204 Kbps
Channel(s) : 2 channels
Channel positions : Front: L R
Sampling rate : 48.0 KHz
Compression mode : Lossy
Delay relative to video : -1s 707ms
Stream size : 196 MiB (4%)
Title : 12 stuliev_hd.mp4
Encoded date : UTC 2015-02-03 18:14:43
Tagged date : UTC 2015-02-03 18:21:02
Text #3
ID : 3
Format : Timed text
Codec ID : tx3g
Duration : 2h 32mn
Bit rate mode : Variable
Bit rate : 60 bps
Delay relative to video : -1s 707ms
Stream size : 67.1 KiB (0%)
Title : English.srt
Encoded date : UTC 2015-02-03 18:21:01
Tagged date : UTC 2015-02-03 18:21:02
provod67
Любитель
  • Total Posts : 90
  • Scores: 19
  • Joined: 2011/02/28 14:06:35
  • Status: offline
Re: Релизы Крупного плана 2015/02/06 18:10:14 (ссылка)
0
Будьте моим мужем оказался полным лохотроном - качество DVD со всеми артефактами сжатия, только изменена немного цветопередача. Стремно для такой компании разводить клиентов на бабки.
 
BOLiK
Moderator
  • Total Posts : 9017
  • Scores: 2483
  • Joined: 2008/09/16 19:18:43
  • Location: Москва
  • Status: offline
Re: Релизы Крупного плана 2015/02/07 00:34:10 (ссылка)
0
На 12 стульев битрейт выше чем на youtube. Там 3384 Кбит/сек. В общем, для себя решил нет смысла покупать. Разница не велика между халявой и тем, что дают скачать. Да и халява, при наличии DVD, не нужна.

Куплю оригинальные видеокассеты от Варус Видео
Uhanov73
Меценат
  • Total Posts : 1666
  • Scores: 1678
  • Joined: 2013/03/08 08:11:12
  • Location: г.Иваново
  • Status: offline
Re: Релизы Крупного плана 2015/02/08 18:03:35 (ссылка)
0
Экипаж по 1HD показывают.
Картинка хорошая
DTS
Эксперт
  • Total Posts : 2530
  • Scores: 378
  • Joined: 2007/01/09 13:35:30
  • Location: Литва
  • Status: offline
Re: Релизы Крупного плана 2015/02/09 05:16:18 (ссылка)
0
Картинка HD или хороший апскейл?

За это морду бить надо!
(с) Остап Бендер.
 
Uhanov73
Меценат
  • Total Posts : 1666
  • Scores: 1678
  • Joined: 2013/03/08 08:11:12
  • Location: г.Иваново
  • Status: offline
Re: Релизы Крупного плана 2015/02/09 08:18:51 (ссылка)
0
Мне показалось, что HD, но весь фильм не смотрел.
provod67
Любитель
  • Total Posts : 90
  • Scores: 19
  • Joined: 2011/02/28 14:06:35
  • Status: offline
Re: Релизы Крупного плана 2015/02/09 11:21:52 (ссылка)
0
Судя по сканам на трекере - апскейл, очень уж все мутное, даже близко HD не наблюдается.
 
Скачал рип - та же картина, что у фильмов, купленных на сайте Мосфильма. Отличие в четкости картинки, в сравнении с ДВД вариантом, очень незначительное. Улучшена цветопередача и нормализован контраст, на этом всё. Если сравнивать в работами Крупного Плана, вывод напрашивается один - халтура полная. Самый худший КП-шный блю-рей просто рвет эти поделки на мелкие кусочки. Более покупать у них точно ничего не стану. Будем надеятся, что КП выйдет рано или поздно из комы. Если не выйдет - беда советскому синематографу.
post edited by provod67 - 2015/02/10 09:08:42
hdmaniac
Меценат
  • Total Posts : 11249
  • Scores: 10975
  • Joined: 2008/01/26 18:49:41
  • Location: Москва
  • Status: online
Re: Релизы Крупного плана 2015/02/11 23:25:59 (ссылка)
0
НТВ начал вещать в HD, хотя советскую классику они редко
показывают, но вдруг что-нибудь и покажут в этом формате)))
Но всё равно от этого не легче, диски BLU-RAY от КП так и не
выходят...

BLU-RAY -1320, 4K ULTRA HD - 135
UHD 4K PANASONIC 824GK(B), UBD 4К OPPO 203(A), Sony UBP-X700(B), 
OPPO BDP-93 3D (ABC), LG BP325(C), PS 4 (500 Гб "A"), Apple 4K TV
TV SONY 75 XF9005
projector EPSON 4K HDR EH-TW9300, Elite Screens SKT100UHW-E12"
 
Крик
Звёздный флот
  • Total Posts : 6215
  • Scores: 915
  • Joined: 2008/02/15 22:32:18
  • Location: г. Йошкар-Ола
  • Status: offline
Re: Релизы Крупного плана 2015/02/12 09:40:36 (ссылка)
0
Топик вырос почти до 200 страниц, поэтому я его закрыл.
 
Встречайте продолжение темы Релизы Крупного плана II.
post edited by Крик - 2015/02/12 09:56:04

ПРОДАЮ STEELBOOKS (С РУССКОЙ ЛОКАЛИЗАЦИЕЙ):
Page: << < ..171172173174175 Showing page 175 of 175
Jump to:
© 2019 APG vNext Commercial Version 5.5